вход на сайт

Имя пользователя :
Пароль :

Восстановление пароля Регистрация
(2012) Linkin Park / LP Underground 12 (Alternative Rock) [FLAC (tracks+.cue), Lossless]
Рейтинг:
(голосов: 1)



[img]{THEME}/images/logopost.png[/img]



Исполнитель: Linkin Park
Альбом: LP Underground 12
Страна: USA
Тип альбома: Demo
Год выпуска: 2012
Жанр: Alternative Rock
Аудиокодек: FLAC
Тип рипа: (tracks+.cue)
Битрейт: Lossless
Log-файл: Присутствует
Наличие сканов в содержимом раздачи: Есть
Продолжительность: 00:31:16



Tреклист:
01. Homecoming (Minutes to Midnight Demo) (03:08)
02. Points of Authority (Demo) (03:04)
03. Clarity (Minutes to Midnight Demo) (03:05)
04. Asbestos (Minutes to Midnight Demo) (01:55)
05. Bunker (Minutes to Midnight Demo) (03:56)
06. So Far Away (Unreleased 1998) (02:53)
07. Pepper (Meteora Demo) (02:56)
08. Debris (Minutes to Midnight Demo) (03:23)
09. Ominous (Meteora Demo) (03:08)
10. Forgotten (Demo) (03:44)

Лог создания рипа ▼X Lossless Decoder version 20121027 (142.1)

XLD extraction logfile from 2012-12-04 12:26:20 -0600

Linkin Park / LP Underground 12 (EP)

Used drive : MATSHITA CD-RWCW-8124 (revision DACH)

Ripper mode : XLD Secure Ripper
Disable audio cache : OK for the drive with a cache less than 1375KiB
Make use of C2 pointers : NO
Read offset correction: 102
Max retry count : 100
Gap status: Analyzed, Appended (except HTOA)

TOC of the extracted CD
Track | Start|Length| Start sector | End sector
---------------------------------------------------------
1| 00:00:00 | 03:08:26 | 0|14125
2| 03:08:26 | 03:04:63 | 14126|27988
3| 06:13:14 | 03:05:16 | 27989|41879
4| 09:18:30 | 01:54:74 | 41880|50503
5| 11:13:29 | 03:55:74 | 50504|68202
6| 15:09:28 | 02:53:31 | 68203|81208
7| 18:02:59 | 02:56:04 | 81209|94412
8| 20:58:63 | 03:23:49 | 94413| 109686
9| 24:22:37 | 03:08:13 |109687| 123799
10| 27:30:50 | 03:44:66 |123800| 140665

AccurateRip Summary
Disc not found in AccurateRip DB.

All Tracks
Album gain : -10.12 dB
Peak : 0.988556
Statistics
Read error : 0
&
e7c4b95ec86ace9b9f38add9a77d3ddb91eb4aa8(2012) Linkin Park / LP Underground 12 (Alternative Rock) [FLAC (tracks+.cue), Lossless] (2012) Linkin Park / LP Underground 12 (Alternative Rock) [FLAC (tracks+.cue), Lossless] " />

Аплоадер: Админ, дата: 5-12-2012, 13:36, торрент скачан: 359 раз

Понравилась раздача? Посмотрите эти:
  • (2013) Linkin Park / Underground XIII (Alternative Rock) [FLAC (tracks+.cue ...
  • (2013) Kanye West | Yeezus (Rap|Experimental Hip-Hop) [FLAC (tracks+.cue), ...
  • (2012) The Lumineers / The Lumineers (Indie-folk, Folk-rock) [FLAC (tracks+ ...
  • (2013) Paramore / Paramore (Japan Edition) (Alternative Rock) [FLAC (tracks ...
  • (2013) Linkin Park / Castle Of Glass (Alternative) [FLAC (image+.cue), Loss ...
  • (2010) Linkin Park / A Decade Underground (Alternative Rock) [mp3, 320 kbps ...
  • (2011) Linkin Park / LP Underground 11 (Alternative) [MP3,320/CBR]
  • (2012) Linkin Park / LP Underground 12 (EP) (Alt.Rock) [MP3, 320/CBR]
  • (2011) Moby / Destroyed (Electronic, Downtempo, Ambient) [FLAC (tracks+.cue ...
  • (2011) Linkin Park / LP Underground 11 (Alternative Rock) [FLAC (Image+cue) ...
  • (2012) Bruce Springsteen / Wrecking Ball (Folk Rock) [FLAC (tracks+.cue),l ...
  • (2012) Norah Jones / Little Broken Hearts (Vocal Jazz, Alternative Rock) [F ...
  • (2012) Linkin Park / Burn It Down (Alternative Rock) (Single) [FLAC (image+ ...
  • (2009) Linkin Park / Underground 09/LPU 9 (Alt.Rock/Nu-Metal) [FLAC (track ...
  • (2012) Linkin Park / Living Things (Japan Edition) (Alternative, Rap-Rock) ...
  • (2012) Hans Zimmer / The Dark Knight Rises (Film score) [FLAC (tracks+.cu ...
  • (2010) Linkin Park / A Thousand Suns (Alternative, Electronic) [FLAC (track ...
  • [LP] (2010) Linkin Park / A Thousand Suns (Alternative Rock) [FLAC (tracks) ...
  • (2011) Linkin Park / Iridescent (Alternative Rock) [FLAC(image+.cue), lossl ...
  • (2009) Linkin Park / LP Underground 9.0 (Demos) Acetate Disc (Alternative R ...
  • (2012) Lana Del Rey / Born To Die (Indie Pop) [FLAC (tracks+.cue), lossless ...
  • (2012) The Fray / Scars & Stories (Alternative/Rock/Piano Rock) [FLAC (trac ...
  • (2012) Young Guns / Bones (Alternative Rock) [FLAC (tracks +.cue), lossless ...
  • (2012) Switchfoot / Vice Re-Verses (Remixes) (Alternative, Christian Rock, ...
  • (2011) 7eventh Time Down / Alive In You (Alternative Rock/Modern Rock/Chris ...
  • Информация
    Посетители, находящиеся в группе Гости, не могут оставлять комментарии к данной публикации.