вход на сайт

Имя пользователя :
Пароль :

Восстановление пароля Регистрация
(2007) Maximum the Hormone / マキシマム ザ ホルモン / Buiikikaesu (Hardcore / J-Rock / Experimental / Funk / Nu) [FLAC (tracks+.cue), lossless]
Рейтинг:
(голосов: 1)



[img]{THEME}/images/logopost.png[/img]



Исполнитель: Maximum the Hormone
Страна: Япония
Год: 2007, 14 марта
Жанр: Hardcore / J-Rock / Experimental / Funk
Тип альбома: студийный
Лейбл: VAP
Аудиокодек: FLAC
Тип рипа: tracks+.cue
Битрейт: lossless
Лог файл: присутствует
Продолжительность: 00:49:27

Об исполнителе: Maximum The Hormone (яп. マキシマム ザ ホルモン Макисимаму дза хорумон?) японская рок-группа, сочетающая тяжёлое альтернативное звучание с пародийными поп-элементами. С 2008 по 2010 год группа прерывала деятельность из-за беременности барабанщицы Нао. Песня «Akagi» была использована в одноимённом аниме. Три трека использовались в двух аниме. «Whats Up, People?!» и «Zetsubou Billy» были использованы как вступительная заставка и закрывающая тема, соответственно, для эпизодов 20-37 Death Note.
Bu-ikikaesu — пятый альбом японской рок-группы Maximum the Hormone. Это был первый альбом группы, который появился в чарте Oricon, дебютировал на пятой строчке чарта и был продан в 70,000 копий за первую неделю, а после остался в чартах на 78 недель RIAJ подтвердил статус Золота, продав более 100,000 копий в Японии и 250,000 во всём мире.

Tреклист:
01. Buikikaesu!! (3:55)
02. Zetsubo Billy (3:44)
03. Kuso Breakin No Breakin Lilly (4:16)
04. Louisiana Bob (3:41)
05. Policeman Benz (4:10)
06. Black Power G Men Spy (2:28)
07. Akagi (2:17)
08. Kyokatsu (3:37)
09. Bikini. Sports. Ponchin (3:57)
10. Whats up, people!! (4:10)
11. Chu Chu Lovely Muni Muni Mura Mura Purin Purin Boron Nururu Rero Rero (3:06)
12. Shimi (4:17)
13. Koi No Mega Lover (5:28)
14. Bonus Track (0:23)

Лог создания рипа ▼TextExact Audio Copy V0.99 prebeta 4 from 23. January 2008

EAC extraction logfile from 17. July 2009, 2:08

Maximum the Hormone / Buiikikaeasu

Used drive : Optiarc DVD RW AD-5540A Adapter: 0 ID: 0

Read mode : Secure
Utilize accurate stream : Yes
Defeat audio cache : Yes
Make use of C2 pointers : No

Read offset correction : 48
Overread into Lead-In and Lead-Out : No
Fill up missing offset samples with silence : Yes
Delete leading and trailing silent blocks : No
Null samples used in CRC calculations : Yes
Used interface : Native Win32 interface for Win NT & 2000
Gap handling : Appended to previous track

Used output format : User Defined Encoder
Selected bitrate : 192 kBit/s
Quality : High
Add ID3 tag : No
Command line compressor : C:Program FilesExact Audio Copyflac.exe
Additional command line options : -8 -A tukey(0.25) -A gauss(0.1875) -b 4096 -V -T "artist=%a" -T "title=%t" -T "album=%g" -T "date=%y" -T "tracknumber=%n" -T "genre=%m" %s --sector-align

TOC of the extracted CD

Track | Start | Length | Start sector | End sector
---------------------------------------------------------
1 | 0:00.00 | 3:54.63 | 0 | 17612
2 | 3:54.63 | 3:44.09 | 17613 | 34421
3 | 7:38.72 | 4:15.73 | 34422 | 53619
4 | 11:54.70 | 3:40.45 | 53620 | 70164
5 | 15:35.40 | 4:09.40 | 70165 | 88879
6 | 19:45.05 | 2:27.39 | 88880 | 99943
7 | 22:12.44 | 2:16.38 | 99944 | 110181
8 | 24:29.07 | 3:36.40 | 110182 | 126421
9 | 28:05.47 | 3:56.69 | 126422 | 144190
10 | 32:02.41 | 4:10.17 | 144191 | 162957
11 | 36:12.58 | 3:06.22 | 162958 | 176929
12 | 39:19.05 | 4:17.32 | 176930 | 196236
13 | 43:36.37 | 5:27.69 | 196237 | 220830
14 | 49:04.31 | 0:23.15 | 220831 | 222570

Track 1

Filename C:What.cd UploadsflacMaximum the Hormone - Buiikikaesu1 - Buiikikaesu!!.wav

Pre-gap length 0:00:02.00

Peak level 99.9 %
Track quality 100.0 %
Test CRC AE5D0ED7
Copy CRC AE5D0ED7
Accurately ripped (confidence 8) [D0B461BA]
Copy OK

Track 2

Filename C:What.cd UploadsflacMaximum the Hormone - Buiikikaesu2 - Zetsubou biri-.wav

Peak level 99.9 %
Track quality 99.9 %
Test CRC 5509F010
Copy CRC 5509F010
Accurately ripped (confidence 8) [95BE82ED]
Copy OK

Track 3

Filename C:What.cd UploadsflacMaximum the Hormone - Buiikikaesu3 - Kuso
33ab0dc4f573e3a3bc0fbed4d2192bc7dc8f6c76(2007) Maximum the Hormone / マキシマム ザ ホルモン / Buiikikaesu (Hardcore / J-Rock / Experimental / Funk / Nu) [FLAC (tracks+.cue), lossless] (2007) Maximum the Hormone / マキシマム ザ ホルモン / Buiikikaesu (Hardcore / J-Rock / Experimental / Funk / Nu) [FLAC (tracks+.cue), lossless] " />

Аплоадер: Админ, дата: 3-11-2012, 02:11, торрент скачан: 359 раз

Понравилась раздача? Посмотрите эти:
  • (2013) Black Veil Brides / Wretched And Divine: The Story Of The Wild Ones ...
  • (2010) Вячеслав Бутусов и Ю-Питер / Цветы и Тернии (Rock) [FLAC (tracks + . ...
  • (2010) Zaz / Zaz (Nu jazz, Chanson, Soul) [FLAC (tracks+.cue), lossless]
  • (2011) Daughtry / Break the Spell (Deluxe Edition) (Alt. Rock / Modern Rock ...
  • (2002) PPK (ППК) / ReLoad. Russian Trance (Trance) [FLAC (tracks+cue), loss ...
  • (2010) Ravenna / Debrief (Alt. Rock / Christian Rock / Indie) [FLAC (tracks ...
  • (2011) B.B. King / Icon (Blues) [FLAC (tracks+.cue), lossless]
  • (2000) Bomfunk MCs / In Stereo (Special 2CD Edition) (Electro, Hip-Hop, Fun ...
  • (2006) The Rasmus / Shot (Single) (Alternative Rock) [FLAC (tracks+.cue), l ...
  • (2011) Linkin Park / Iridescent (Alternative Rock) [FLAC(image+.cue), lossl ...
  • (2011) Ляпис Трубецкой / Веселые картинки (Rock) [FLAC (tracks+.cue), lossl ...
  • (2011) Дельфин / Существо (Alternative|Experimental) [FLAC (tracks+.cue), l ...
  • (2011) Ленинград / Хна (Rock) [FLAC (tracks+.cue), lossless]
  • (2004) Дельфин / Запись концерта 19.11.04 (Alternative|Experimental) [FLAC ...
  • (2012) Buckethead / Electric Sea (Experimental/Acoustic/Ambient/Rock) [FLAC ...
  • (Дискография, 2002 - 2012) Rodrigo y Gabriela (Acoustic, Flamenco, Classica ...
  • (2012) Les Friction / Les Friction (Alt. Rock/Neo-Classical/Orchestral) [FL ...
  • (2011) Downhere / On The Altar Of Love (Alternative Rock/Christian Rock) [F ...
  • (2012) Bleeding Through / The Great Fire (Symphonic Metalcore/Hardcore) [FL ...
  • (2011) Terra Tenebrosa / The Tunnels (Atmospheric Sludge Post-Metal/Psyched ...
  • (2009) Exivious (Ex. Cynic) / Exivious (Progressive Metal/Death Metal) [FLA ...
  • (2012) KoRn feat. Skrillex / Chaos Lives In Everything (UK Promo) (Nu-metal ...
  • (2012) Nine Lashes / World We View (Alt.Rock/Alt.Metal/Christian) [FLAC (tr ...
  • (2011) Ink Stained Promises / Relations. (Metalcore, Hardcore) [FLAC (track ...
  • (2012) For Today / Immortal (Metalcore, Hardcore, Christian) [FLAC (tracks+ ...
  • Информация
    Посетители, находящиеся в группе Гости, не могут оставлять комментарии к данной публикации.