вход на сайт

Имя пользователя :
Пароль :

Восстановление пароля Регистрация
(1991) Shadow King (feat.Lou Gramm ex. lead vocal "Foreigner") / Shadow King (Japan, East West/Atlantic, AMCY-720) (Hard Rock, AOR) [FLAC (image+.cue), lossless]
Рейтинг:
(голосов: 1)



[img]{THEME}/images/logopost.png[/img]



Исполнитель: SHADOW KING
Страна: Los Angeles, USA
Альбом: Shadow King
Тип альбома: Студийный
Год выпуска: 1991
Жанр: Hard Rock, AOR
Год первоначального издания альбома: 1991
Страна (Издатель, Каталожный номер): Japan (East West/Atlantic, AMCY-720)
Аудиокодек: FLAC
Тип рипа: image+.cue
Битрейт: lossless
Лог файл: присутствует
Продолжительность: 00:44:38

ОБ ИСПОЛНИТЕЛЕ:
▼25 мая 1990 г. Лу Грэмм (Lou Gramm) официально ушел из FOREIGNER и все лето колесил по стране, разогревая залы для STEVE MILLER BAND,
a уже в декабре организовал новую группу SHADOW KING, в состав которой вошли Тергон, Кэмпбелл и барабанщик Кевин Вэлентайн. SHADOW KING подписали контракт с Atlantic и в декабре 1991 г. выпустили свой единственный одноименный альбом, встреченный публикой довольно прохладно, что сразу же понизило в цене их акции. В апреле 1992 музыканты приняли решение расстаться. Кэмпбелл присоединился к DEF LEPPARD, Вэлентайн занял место барабанщика в CINDERELLA, a Грэмм два месяца спустя, в самый разгар расовых волнений в Лос-Анджелесе, встретился с Миком Джонсом, после чего решил вернуться в FOREIGNER, прихватив с собой в новый состав и Тергона.TRACKLIST:
01. What Would It Take (04:23)
02. Anytime, Anywhere (04:27)
03. Once Upon A Time (05:25)
04. Dont Even Know Im Alive (05:09)
05. Boy (04:05)
06. I Want You (04:30)
07. This Heart Of Stone (04:37)
08. Danger In The Dance Of Love (03:58)
09. No Mans Land (04:14)
10. Russia (03:47)


Лог создания рипа
▼TextExact Audio Copy V0.99 prebeta 5 from 4. May 2009

Отчёт EAC об извлечении, выполненном 16. июня 2010, 6:03

Shadow King / Shadow King

Дисковод: PIONEER DVD-RW DVR-112L Adapter: 1 ID: 0

Режим чтения : Достоверность
Использование точного потока : Да
Отключение кэша аудио : Да
Использование указателей C2 : Нет

Коррекция смещения при чтении : 48
Способность читать области Lead-in и Lead-out : Нет
Заполнение пропущенных сэмплов тишиной : Да
Удаление блоков с тишиной в начале и конце : Нет
При вычислениях CRC использовались нулевые сэмплы : Да
Интерфейс : Установленный внешний ASPI-интерфейс

Выходной формат : Внутренние WAV-операции
Формат сэмплов : 44.100 Гц; 16 бит; стерео


TOC извлечённого CD

Трек | Старт | Длительность | Начальный сектор | Конечный сектор
---------------------------------------------------------------------
1 | 0:00.00 | 4:23.30 | 0 | 19754
2 | 4:23.30 | 4:27.05 | 19755 | 39784
3 | 8:50.35 | 5:25.27 | 39785 | 64186
4 | 14:15.62 | 5:09.15 | 64187 | 87376
5 | 19:25.02 | 4:05.20 | 87377 | 105771
6 | 23:30.22 | 4:30.40 | 105772 | 126061 &nbs
c161119407af6b3deb643dc40284e04ed8044988(1991) Shadow King (feat.Lou Gramm ex. lead vocal "Foreigner") / Shadow King (Japan, East West/Atlantic, AMCY-720) (Hard Rock, AOR) [FLAC (image+.cue), lossless] (1991) Shadow King (feat.Lou Gramm ex. lead vocal "Foreigner") / Shadow King (Japan, East West/Atlantic, AMCY-720) (Hard Rock, AOR) [FLAC (image+.cue), lossless] " />

Аплоадер: Админ, дата: 8-08-2012, 23:13, торрент скачан: 359 раз

Понравилась раздача? Посмотрите эти:
  • (1987) George Michael /Faith (1st Press Japan) (Electronic, Pop/Rock) [APE ...
  • (2000) Lenny Kravitz / Greatest Hits (Rock, Funk) [FLAC (image+.cue), lossl ...
  • (1992) Smokie / The Story Of Smokie (2CD Set Germany, BMG, Ariola) (Rock) [ ...
  • (1993) Coverdale & Page / Coverdale & Page (EMI Holland)(Hard Rock) [FLAC ( ...
  • (2000) a-ha / Minor Earth | Major Sky (Alternative Rock, Synth-pop ) [FLAC ...
  • (2002) a-ha / Lifelines (Alternative Rock, Synth-pop ) [FLAC (image + .cue ...
  • (1995) Corona / The Rhythm Of The Night (Japan) (Eurodance) [FLAC (image+. ...
  • (2013) Pinnick Gales Pridgen / Pinnick Gales Pridgen (Hard Rock, Heavy Blue ...
  • (2013) Krokus / Dirty Dynamite (Hard Rock) [FLAC (image+.cue), lossless]
  • (2012) Три Кита (Зануда, Gipsy King, Тато) / Три Кита (Rap) [FLAC (tracks+. ...
  • (2012) Григорий Лепс / Полный вперёд (Шансон) [FLAC (image+.cue), Lossless ...
  • (2010) БИ-2 / О чём говорят мужчины (Pop-Rock) [FLAC (image + .cue), lossle ...
  • (2011) VA / Bar Jazz (Swing, Vocal Jazz, Trad Jazz) [FLAC (image+.cue), los ...
  • (2011) Blues Cousins / KGB Blues (Blues Rock) [FLAC (image+.cue), lossless] ...
  • (1997) Jazz Cafe / Simple Pleasures (Jazz, instrumental) [FLAC (image+.сue ...
  • (Дискография, 1977-1980) Fandango (R&B, Melodic Hard Rock, Electric Pop Roc ...
  • (2012) The Rasmus / The Rasmus (Alternative Rock/Melodic Rock) [FLAC (track ...
  • (2008) Фёдор Иванович Шаляпин / Песни и Романсы, 2CD (The Art of Feodor Sha ...
  • (1989) Motley Crue / Dr. Feelgood (Hard Rock, Heavy metal, Glam metal) [APE ...
  • (2012) The Blues Overdrive / The Blues Overdrive (Blues-Rock) [FLAC (image+ ...
  • (2012) Gary Clark Jr. / Blak and Blu (Blues, Rock) [FLAC (image+.cue), loss ...
  • (1995) Yaki-Da / Pride (Pop, Eurodance) [FLAC (image+.сue), lossless]
  • (2000) Парк Горького (Gorky Park) / The Best (Glam Metal/Hard Rock) [FLAC ...
  • (2004) Ex-Сектор Газа / Огненный рай (Punk-Rock) [FLAC (image+.cue), lossle ...
  • (2008) Студия 80 / Придуманный Мир (Pop) [FLAC (image+.cue), lossless]
  • Информация
    Посетители, находящиеся в группе Гости, не могут оставлять комментарии к данной публикации.