вход на сайт

Имя пользователя :
Пароль :

Восстановление пароля Регистрация
(Дискография, 2002-2012) Maroon 5 (Pop, Soft-Rock) [FLAC (tracks+.cue), lossless]
Рейтинг:
(голосов: 1)



[img]{THEME}/images/logopost.png[/img]



Maroon 5

Исполнитель: Maroon 5
Страна: USA
Жанр: Pop, Soft-Rock
Аудиокодек: FLAC
Тип рипа: tracks+.cue
Битрейт: lossless
Продолжительность: 04:28:56

Об исполнителе: Maroon 5 (англ. Мэру̀н Фа̀йв) — американская поп-рок-группа, образована в Лос-Анджелесе, Калифорния. Группа образовалась в 1995 году под названием «Kara’s Flowers». В её состав входили вокалист и ритм-гитарист Адам Левин, клавишник Джесси Кармайкл, бас-гитарист Микки Мэдден и ударник Райан Дусик. Всемирный успех пришёл в 2004 году вместе с синглом «This Love». Команда дважды поднималась на первую строчку национального чарта США — в 2007 году с песней «Makes Me Wonder» и в 2011 году с синглом «Moves Like Jagger».

Studio:

2002 - Songs About Jane (FLAC (tracks+.cue), lossless) ▼

Songs about Jane — дебютный альбом американской поп-рок группы Maroon 5, образованной в Лос-Анджелесе. Альбом был выпущен в июне 2002 года и к концу 2004 года оказался в лучшей десятке Billboard 200.

Производитель диска: Singapore
Лейбл: Octone Records – 82876 63228 2
Продолжительность: 01:02:10

Tреклист:
[02:55] 01. Maroon 5 - Harder To Breathe
[03:26] 02. Maroon 5 - This Love
[03:00] 03. Maroon 5 - Shiver
[04:17] 04. Maroon 5 - She Will Be Loved
[03:19] 05. Maroon 5 - Tangled
[04:09] 06. Maroon 5 - The Sun
[03:58] 07. Maroon 5 - Must Get Out
[04:03] 08. Maroon 5 - Sunday Morning
[04:57] 09. Maroon 5 - Secret
[03:02] 10. Maroon 5 - Through With You
[04:23] 11. Maroon 5 - Not Coming Home
[04:30] 12. Maroon 5 - Sweetest Goodbye

Bonus Tracks:
[05:28] 13. Maroon 5 - Rag Doll
[02:56] 14. Maroon 5 - Harder To Breathe [Acoustic]
[04:01] 15. Maroon 5 - This Love [Acoustic]
[03:38] 16. Maroon 5 - This Love [Kanye West Remix]
Лог создания рипа ▼TextEAC extraction logfile from 20. May 2007, 18:08 for CD
Maroon 5 / Songs About Jane

Used drive : TOSHIBA DVD-ROM SD-R5112 Adapter: 0 ID: 0
Read mode : Secure with NO C2, accurate stream, disable cache
Read offset correction : 116
Overread into Lead-In and Lead-Out : No

Used output format : C:ripflac-1.1.4-winbinflac.exe (User Defined Encoder)
192 kBit/s
Additional command line options : -8 -A tukey(0.25) -A gauss(0.1875) -b 4096 -V -T "artist=%a" -T "title=%t" -T "album=%g" -T "date=%y" -T "tracknumber=%n" %s --sector-align

Other options :
Fill up missing offset samples with silence : Yes
Delete leading and trailing silent blocks : No
Installed external ASPI interface


Track 1
Filename C:uploadMaroon 5 - Songs About JaneMaroon 5 - Harder To Breathe.wav

Pre-gap length 0:00:02.00

Peak level 98.8 %
Track quality 100.0 %
Test CRC B5081763
Copy CRC B5081763
Copy OK

Track 2
Filename C:uploadMaroon 5 - Songs About JaneMaroon 5 - This Love.wav

Pre-gap length 0:00:02.00

Peak level 98.8 %
Track quality 100.0 %
Test CRC F5C2489A
Copy CRC F5C2489A
Copy OK

Track 3
Filename C:uploadMaroon 5 - Songs About JaneMaroon 5 - Shiver.wav

Peak level 98.8 %
Track quality 100.0 %
Test CRC 270C5F31
Copy CRC 270C5F31
Copy OK

Track 4
Filename C:uploadMaroon 5 - Songs About JaneMaroon 5 - She Will Be Loved.wav

Pre-gap length 0:00:02.00
edfdb0f00dbbfafc7e0c1fcaefc11fdd5b09d411(Дискография, 2002-2012) Maroon 5 (Pop, Soft-Rock) [FLAC (tracks+.cue), lossless] (Дискография, 2002-2012) Maroon 5 (Pop, Soft-Rock) [FLAC (tracks+.cue), lossless] " />

Аплоадер: Админ, дата: 10-07-2012, 10:57, торрент скачан: 359 раз

Понравилась раздача? Посмотрите эти:
  • (2013) Maroon 5 / The Best Songs (Pop, Pop-Rock) [MP3, 320 / CBR]
  • (2013) Girls Generation (SNSD) - Galaxy Supernova / Galaxy Supernova (KPop) ...
  • Maroon 5 (31 песня)
  • (Дискография,2002-2010) Maroon 5 (Pop, Rock) [mp3, 320 kbps/CBR]
  • (1999) Red Hot Chili Peppers - Californication (Alternative rock, Funk) [FL ...
  • (2009) The Black Eyed Peas / The E.N.D. (The Energy Never Dies) (Target Del ...
  • (2008) Karunesh /Enlightenment (New Age) [FLAC (image+.cue), lossless]
  • (2002) PPK (ППК) / ReLoad. Russian Trance (Trance) [FLAC (tracks+cue), loss ...
  • (2010) Ravenna / Debrief (Alt. Rock / Christian Rock / Indie) [FLAC (tracks ...
  • (1988) David Grisman Quintet feat. Svend Asmussen / Svingin With Svend (Jaz ...
  • (1991, 4xCD Box Set) James Brown / Star Time (Funk, Soul, Blues, Disco) [FL ...
  • (Дискография, 1995-2006) Adiemus (Instrumental, Folk, Vocal, New Age) [FLAC ...
  • (2009) Timbaland / Shock Value II (Hip-Hop / RnB) [FLAC (tracks+.cue), loss ...
  • (2004-2006) Amy Winehouse (Rhythm & Blues/Neo-Soul, Ska, Jazz Pop) [FLAC(t ...
  • (Дискография, 2001-2009) Alicia Keys (R&B) [FLAC (tracks+.cue), lossless]
  • (2006) The Rasmus / Shot (Single) (Alternative Rock) [FLAC (tracks+.cue), l ...
  • (2010) [AMATORY] / Инстинкт обречённых (Nu Metal) [FLAC (tracks), lossless] ...
  • (2011) Linkin Park / Iridescent (Alternative Rock) [FLAC(image+.cue), lossl ...
  • (1999) Necrophagist / Onset Of Putrefaction (Technical Death Metal) [FLAC ( ...
  • (2011) This Will Destroy You / Tunnel Blanket (Post Rock) [FLAC (tracks+.cu ...
  • (2004) Дельфин / Запись концерта 19.11.04 (Alternative|Experimental) [FLAC ...
  • (Дискография, 2002 - 2012) Rodrigo y Gabriela (Acoustic, Flamenco, Classica ...
  • (2012) KoRn feat. Skrillex / Chaos Lives In Everything (UK Promo) (Nu-metal ...
  • (2011) Ink Stained Promises / Relations. (Metalcore, Hardcore) [FLAC (track ...
  • (2012) Maroon 5 / Songs About Jane [2 CD 10th Anniversary Edition] (Pop-roc ...
  • Информация
    Посетители, находящиеся в группе Гости, не могут оставлять комментарии к данной публикации.