вход на сайт

Имя пользователя :
Пароль :

Восстановление пароля Регистрация
(2012) Linkin Park / Living Things (Alternative Rock, Electronic Rock, Rap Rock, Rap Metal) [FLAC (image+.cue), Lossless]
Рейтинг:
(голосов: 1)



[img]{THEME}/images/logopost.png[/img]



Исполнитель: Linkin Park
Страна: USA, California
Альбом: Living Things
Тип альбома: Студийный
Год выпуска: 2012
Жанр: Alternative Rock, Electronic Rock, Rap Rock, Rap Metal
Страна (Издатель, Каталожный номер): EU (Warner Brothers Records, (093624950486))
Аудиокодек: FLAC
Тип рипа: image+.cue
Битрейт: lossless
Наличие сканов в содержимом раздачи: да (PNG, 600Dpi, 555 MB)
Продолжительность: 00:37:05


Об исполнителе (об издании): Living Things – пятый студийный альбом американской рок-группы Linkin Park, изданный 20 июня 2012 года на лейбле Warner Brothers Records.
По данным Billboard, альбом в первую же неделю возглавил не только Billboard 200, а так же стал лучшим в следующих категориях:
- Billboard Rock Albums
- Billboard Alternative Albums
- Billboard Hard Rock Albums
- Billboard The Official U.K. Albums Chart
- Billboard Canadian Albums
- Billboard German Albums
И стал вторым:
- Billboard Digital Albums
- Billboard Tastemaker Albums

Personal:
- Chester Bennington - vocals
- Mike Shinoda - rapping vocals, clean vocals, rhythm guitar, keyboards
- Brad Delson – lead guitar, backing vocals, vocals on track 10.
- Joe Hahn – turntables, synthesizer, samples, backing vocals
- Dave "Phoenix" Farrell - bass, backing vocals
- Rob Bourdon - drums
- Owen Pallett - strings on track 5.
- Producer - Rick Rubin, Mike Shinoda



Wikipedia | YouTube | Facebook | Official website



Tреклист:

01. Lost In The Echo - 3:26
02. In My Remains - 3:21
03. Burn It Down - 3:50
04. Lies Greed Misery - 2:27
05. Ill Be Gone - 3:31
06. Castle Of Glass - 3:25
07. Victimized - 1:46
08. Roads Untraveled - 3:50
09. Skin To Bone - 2:48
10. Until It Breaks - 3:43
11. Tinfoil - 1:12
12. Powerless - 3:44


Лог создания рипа (EAC) ▼Text
Exact Audio Copy V1.0 beta 3 from 29. August 2011

EAC extraction logfile from 21. June 2012, 19:54

Linkin Park / Living Things

Used drive : SlimtypeBD E DS4E1S Adapter: 0 ID: 1

Read mode : Secure
Utilize accurate stream : Yes
Defeat audio cache : Yes
Make use of C2 pointers : No

Read offset correction : 6
Overread into Lead-In and Lead-Out : No
Fill up missing offset samples with silence : Yes
Delete leading and trailing silent blocks : No
Null samples used in CRC calculations : Yes
Used interface : Native Win32 interface for Win NT & 2000

Used output format : User Defined Encoder
Selected bitrate : 768 kBit/s
Quality : High
Add ID3 tag : No
Command line compressor : C:Program Files (x86)Exact Audio CopyFLACFLAC.EXE
Additional command line options : -V -8 -T "Date=%year%" -T "Genre=%genre%" %source%


TOC of the extracted CD

Track | Start | Length | Start sector | End sector
---------------------------------------------------------
1 | 0:00.00 | 3:25.58 | 0 | 15432
2 | 3:25.58 | 3:20.52 | 15433 | 30484
3 | 6:46.35 | 3:50.19 | 30485 |
106e325b70133d3d84e40ee373bcd4a706b1a206(2012) Linkin Park / Living Things (Alternative Rock, Electronic Rock, Rap Rock, Rap Metal) [FLAC (image+.cue), Lossless] (2012) Linkin Park / Living Things (Alternative Rock, Electronic Rock, Rap Rock, Rap Metal) [FLAC (image+.cue), Lossless] " />

Аплоадер: Админ, дата: 22-06-2012, 09:34, торрент скачан: 359 раз

Понравилась раздача? Посмотрите эти:
  • (2013) Roger Taylor (Queen) / Fun On Earth (Rock) [FLAC (image+.cue), lossl ...
  • (2013) Linkin Park / Recharged (Electronic Rock / Electro House) [FLAC (ima ...
  • (2013) Linkin Park & Steve Aoki / A Light That Never Comes (Electronic Rock ...
  • (2013) Linkin Park / Recharged (Alternative Rock, Electronic) [MP3, 320/CBR ...
  • (2013) Snakecharmer / Snakecharmer (Japanese Edition) (Melodic Hard Rock) [ ...
  • (2013) Linkin Park / Castle Of Glass (Alternative) [FLAC (image+.cue), Loss ...
  • (2012) Linkin Park / Living Things (Japan Edition) (Alternative Rock, Synth ...
  • (2012) Linkin Park / Living Things. Acapellas And Instrumentals (Electronic ...
  • (2011) Uriah Heep - Into The Wild (Hard Rock, Progressive Rock)[FLAC (track ...
  • (2011) Linkin Park / LP Underground 11 (Alternative Rock) [FLAC (Image+cue) ...
  • (2012) Linkin Park / Burn It Down (Alternative Rock) (Single) [FLAC (image+ ...
  • (2009) Linkin Park / Underground 09/LPU 9 (Alt.Rock/Nu-Metal) [FLAC (track ...
  • (2012) Linkin Park / Living Things (Japan Edition) (Alternative, Rap-Rock) ...
  • (2010) Linkin Park / A Thousand Suns (Alternative, Electronic) [FLAC (track ...
  • (2011) Linkin Park / Iridescent (Alternative Rock) [FLAC(image+.cue), lossl ...
  • (2012) The Cranberries / Roses (Alternative Rock / Pop-Rock) [FLAC (tracks+ ...
  • (2011) Downhere / On The Altar Of Love (Alternative Rock/Christian Rock) [F ...
  • Linkin Park / Burn It Down (Billboard Music Awards 2012) [2012, Alternative ...
  • Linkin Park / Burn It Down (Billboard Music Awards 2012) [2012, Alternative ...
  • (2011) Gorillaz - The Singles Collection 2001-2011 (Alternative / Hip-Hop / ...
  • Информация
    Посетители, находящиеся в группе Гости, не могут оставлять комментарии к данной публикации.