вход на сайт

Имя пользователя :
Пароль :

Восстановление пароля Регистрация
(1989) Motley Crue / Dr. Feelgood (Hard Rock, Heavy metal, Glam metal) [APE (image+.cue), lossless]
Рейтинг:
(голосов: 1)



[img]{THEME}/images/logopost.png[/img]



Исполнитель: Motley Crue
Страна: USA
Альбом: Dr. Feelgood
Тип альбома: Студийный
Год выпуска: 1989
Жанр: Hard Rock, Heavy metal, Glam metal
Страна (Издатель, Каталожный номер): Elektra, 9-60829-2, USA
Аудиокодек: APE (*.ape)
Тип рипа: image+.cue
Битрейт: lossless
Продолжительность: 00:45:04

Об исполнителе (об издании): Personnel:
Vince Neil - Vocals
Mick Mars - Guitar
Nikki Sixx - Bass
Tommy Lee - Drums

Треклист ▼
01. T.n T. (Terror n Tinseltown) [0:00:42.55]
02. Dr. Feelgood [0:04:50.28]
03. Slice Of Your Pie [0:04:31.35]
04. Rattlesnake Shake [0:03:40.17]
05. Kickstart My Heart [0:04:42.45]
06. Without You [0:04:29.00]
07. Same Ol Situation (S.O.S.) [0:04:12.48]
08. Sticky Sweet [0:03:51.32]
09. She Goes Down [0:04:37.63]
10. Dont Go Away Mad (Just Go Away) [0:04:39.67]
11. Time For Change [0:04:50.20]

Лог создания рипа ▼TextExact Audio Copy V0.99 prebeta 4 from 23. January 2008

Отчёт EAC об извлечении, выполненном 24. мая 2010, 20:21

Motley Crue / Dr. Feelgood

Дисковод: _NEC DVD_RW ND-3550A Adapter: 1 ID: 2

Режим чтения : Достоверность
Использование точного потока : Да
Отключение кэша аудио : Да
Использование указателей C2 : Нет

Коррекция смещения при чтении : 48
Способность читать области Lead-in и Lead-out : Нет
Заполнение пропущенных сэмплов тишиной : Да
Удаление блоков с тишиной в начале и конце : Нет
При вычислениях CRC использовались нулевые сэмплы : Да
Интерфейс : Установленный внешний ASPI-интерфейс

Выходной формат : Внутренние WAV-операции
Формат сэмплов : 44.100 Гц; 16 бит; стерео


TOC извлечённого CD

Трек | Старт | Длительность | Начальный сектор | Конечный сектор
---------------------------------------------------------------------
1 | 0:00.32 | 0:42.55 | 32 | 3236
2 | 0:43.12 | 4:50.28 | 3237 | 25014
3 | 5:33.40 | 4:31.35 | 25015 | 45374
4 | 10:05.00 | 3:40.17 | 45375 | 61891
5 | 13:45.17 | 4:42.45 | 61892 | 83086
6 | 18:27.62 | 4:29.00 | 83087 | 103261
7 | 22:56.62 | 4:12.48 | 103262 | 122209
8 | 27:09.35 | 3:51.32 | 122210 | 139566
9 | 31:00.67 | 4:37.63 | 139567 | 160404
10 | 35:38.55 |
13d454d51db371a767645ddb0121d9c8aa07bbaa(1989) Motley Crue / Dr. Feelgood (Hard Rock, Heavy metal, Glam metal) [APE (image+.cue), lossless] (1989) Motley Crue / Dr. Feelgood (Hard Rock, Heavy metal, Glam metal) [APE (image+.cue), lossless] " />

Аплоадер: Админ, дата: 15-06-2012, 22:46, торрент скачан: 359 раз

Понравилась раздача? Посмотрите эти:
  • (1987) George Michael /Faith (1st Press Japan) (Electronic, Pop/Rock) [APE ...
  • (1992) Smokie / The Story Of Smokie (2CD Set Germany, BMG, Ariola) (Rock) [ ...
  • (1993) Coverdale & Page / Coverdale & Page (EMI Holland)(Hard Rock) [FLAC ( ...
  • (2002) a-ha / Lifelines (Alternative Rock, Synth-pop ) [FLAC (image + .cue ...
  • (2009) Воскресение / The Best (Rock ) [APE (image + .cue), lossless]
  • (2013) Deep Purple / Now What?! (Deluxe Edition) (Hard Rock, Heavy Metal) [ ...
  • (2013) Pinnick Gales Pridgen / Pinnick Gales Pridgen (Hard Rock, Heavy Blue ...
  • (2010) Lordi / This Is Heavy Metal (Heavy Metal/Hard Rock) [MP3, 320/CBR]
  • (Дискография, 1981-2008) Motley Crue (Heavy Metal, Glam Metal, Hard Rock) [ ...
  • (2011) Within Temptation / The Unforgiving (Symphonic Gothic Metal) [FLAC ( ...
  • (2011) АукцЫон / Юла (Rock) [APE (image+.cue), lossless]
  • (Дискография, 1977-1980) Fandango (R&B, Melodic Hard Rock, Electric Pop Roc ...
  • (Дискография, 1986 - 1999) Crimson Glory (Progressive Heavy Metal) [FLAC (i ...
  • Motley Crue / Carnival of Sins [2005, Heavy Metal, Glam Metal, Hard Rock, B ...
  • (2011) Iron Savior / The Landing (Limited Edition) (Power/Heavy Metal) [FL ...
  • Motley Crue / Crue Fest [2008, Hard Rock, Glam Metal, DVDRip]
  • (2012) Paradise Lost / Tragic Idol (Limited Edition) (Gothic Rock, Metal) [ ...
  • (2011) Paradise Lost / Draconian Times MMXI (Limited Edition) (Gothic Rock, ...
  • (2000) Парк Горького (Gorky Park) / The Best (Glam Metal/Hard Rock) [FLAC ...
  • (2004) Ex-Сектор Газа / Огненный рай (Punk-Rock) [FLAC (image+.cue), lossle ...
  • Информация
    Посетители, находящиеся в группе Гости, не могут оставлять комментарии к данной публикации.