вход на сайт

Имя пользователя :
Пароль :

Восстановление пароля Регистрация
(2009) Linkin Park / Underground 09/LPU 9 (Alt.Rock/Nu-Metal) [FLAC (tracks +.cue), lossless]
Рейтинг:
(голосов: 1)



[img]{THEME}/images/logopost.png[/img]





Альбом: Underground 09/LPU 9
Тип альбома: EP
Год выпуска: 2009
Страна: USA
Жанр: Alt.Rock/Nu-Metal
Формат: FLAC (tracks +.cue)
Битрейт: lossless
Log-файл: Присутствует
Продолжительность: 00:26:51


01. A-Six (Original Long Versions 2002) (03:51)
02. Faint (Demo 2002) (03:11)
03. Sad (By Myself Demo 1999) (01:08)
04. Fear (Leave Out All the Rest Demo 2006) (02:49)
05. Figure.09 (Demo 2002) (03:23)
06. Stick and Move (Runaway Demo 1998) (00:54)
07. Across the Line (Unreleased Demo 2007) (03:10)
08. Drawing (Breaking the Habit Demo 2002) (03:31)
09. Drum Song (Little Things Give You Away Demo 2006) (04:50)


Лог создания рипа
▼Syrup 0.9.9.47, Track.cfg v.0993
Exact Audio Copy V0.99 prebeta 4 from 23. January 2008

EAC extraction logfile from 4. January 2010, 14:08

Linkin Park / LP Underground 9.0: Demos (EP)

Used drive: LITE-ON DVDRW LH-20A1S Adapter: 0ID: 0

Read mode : Secure
Utilize accurate stream : Yes
Defeat audio cache: Yes
Make use of C2 pointers : No

Read offset correction: 6
Overread into Lead-In and Lead-Out: No
Fill up missing offset samples with silence : Yes
Delete leading and trailing silent blocks : No
Null samples used in CRC calculations : Yes
Used interface: Native Win32 interface for Win NT & 2000
Gap handling: Appended to previous track

Used output format: User Defined Encoder
Selected bitrate: 320 kBit/s
Quality : High
Add ID3 tag : No
Command line compressor : C:Program Files (x86)Exact Audio CopySyrupSyrup.exe
Additional command line options : REACT %o %s %d "%a" "%g" "%t" "%n" "%x" "%y" "%m" "%e" "%f" "%b" %r

TOC of the extracted CD

Track | Start|Length| Start sector | End sector
---------------------------------------------------------
1|0:00.00 |3:51.44 | 0|17368
2|3:51.44 |3:11.29 | 17369|31722
3|7:02.73 |1:08.24 | 31723|36846
4|8:11.22 |2:49.33 | 36847|49554
5| 11:00.55 |3:23.54 | 4
1fd11eacad8bde9d5d565715df20d8a8c9b811d8 (2009) Linkin Park / Underground 09/LPU 9 (Alt.Rock/Nu-Metal) [FLAC (tracks +.cue), lossless] (2009) Linkin Park / Underground 09/LPU 9 (Alt.Rock/Nu-Metal) [FLAC (tracks +.cue), lossless] " />

Аплоадер: Админ, дата: 6-06-2012, 19:27, торрент скачан: 359 раз

Понравилась раздача? Посмотрите эти:
  • (2013) Linkin Park / Underground XIII (Alternative Rock) [FLAC (tracks+.cue ...
  • (2010) Linkin Park / A Decade Underground (Alternative Rock) [mp3, 320 kbps ...
  • (2011) Linkin Park / LP Underground 11 (Alternative) [MP3,320/CBR]
  • (2012) Linkin Park / LP Underground 12 (EP) (Alt.Rock) [MP3, 320/CBR]
  • (2007) GORILLAZ / D-Sides [Japan Edition] (Hip-Hop) [FLAC (image+cue), loss ...
  • (2009) ONE REPUBLIC / Waking Up (Pop-Rock/Alternative) [FLAC (tracks+.cue) ...
  • (1977) Jethro Tull / Songs from the wood (Rock, Art-Rock) [FLAC (track+ cue ...
  • (2009) SHAKIRA / She Wolf (US Edition) (Pop) [Flac (tracks+.cue), lossless] ...
  • (2010)Scorpions/Sting In The Tail [FLAC (tracks+cue), lossless]
  • (2010) ПИKНИК / Театр Абсурда (Art-Rock) [FLAC (tracks+.cue), lossless]
  • (2010) Deftones / Diamond Eyes (Nu metal / Alternative) [FLAC, (tracks+ cu ...
  • (2008) Pink / Funhouse (Pop) [FLAC (tracks) lossless]
  • (2009) Radiohead / Hail To The Thief [Collectors Edition: 2-nd CD] (Alterna ...
  • (2006) DMX / Year Of The Dog...Again (EU) (Rap) [FLAC (tracks)]
  • (2011) Linkin Park / LP Underground 11 (Alternative Rock) [FLAC (Image+cue) ...
  • (2012) Linkin Park / Burn It Down (Alternative Rock) (Single) [FLAC (image+ ...
  • (2012) Linkin Park / Living Things (Japan Edition) (Alternative, Rap-Rock) ...
  • (2012) Linkin Park / LP Underground 12 (Alternative Rock) [FLAC (tracks+.cu ...
  • (2010) Linkin Park / A Thousand Suns (Alternative, Electronic) [FLAC (track ...
  • (2011) Linkin Park / Iridescent (Alternative Rock) [FLAC(image+.cue), lossl ...
  • (2008) Scars on Broadway / Scars on Broadway (Japan Edition) (Alt.Metal/Exp ...
  • (2011) Ленинград / Хна (Rock) [FLAC (tracks+.cue), lossless]
  • (2009) Linkin Park / LP Underground 9.0 (Demos) Acetate Disc (Alternative R ...
  • (2012) The Cranberries / Roses (Alternative Rock / Pop-Rock) [FLAC (tracks+ ...
  • (2012) Оргия Праведников / Шитрок (Rock/Progressive Rock) [FLAC (tracks+cue ...
  • Информация
    Посетители, находящиеся в группе Гости, не могут оставлять комментарии к данной публикации.