вход на сайт

Имя пользователя :
Пароль :

Восстановление пароля Регистрация
(2010) Joan Jett & The Blackhearts / Greatest Hits (Rock, Hard Rock, Punk Rock) [FLAC (tracks+.cue), lossless]
Рейтинг:
(голосов: 1)



[img]{THEME}/images/logopost.png[/img]




Исполнитель: Joan Jett & The Blackhearts
Страна: USA
Альбом: Greatest Hits
Издатель (лейбл): Blackheart Records Group inc.
Тип альбома: Compilation album
Год выпуска: 2010
Жанр: Rock, Hard Rock, Punk Rock
Формат: FLAC (tracks+.cue)
Битрейт: lossless
Log-файл: Присутствует
Наличие сканов в содержимом раздачи: Да
Продолжительность: 01:06:14


Описание: Джоан Джетт (настоящее имя Джоан Мэри Ларкин, родилась 22 сентября 1958 года) — американская рок-музыкант, гитаристка, вокалистка, продюсер и автор песен, актриса.
Получила известность, когда играла на ритм-гитаре в группе The Runaways. Но большую известность Джоан получила, когда исполнила песню «I Love Rock n Roll» со своей группой Joan Jett & the Blackhearts, которая занимала первую строчку в Billboard Hot 100 с 20 марта до 1 мая 1982. Другими известными песнями группы были «Crimson and Clover», «I Hate Myself for Loving You» «Do You Want to Touch Me», «Light of Day», «Love Is All Around», «Bad Reputation» и «Little Liar».
Её музыка в основном изобилие бескомпромиссного, механического ритма, свойственного для многих групп из её родной Филадельфии. Тексты песен чаще всего о потерянной любви, стремлении к настоящему, о борьбе и резолюции американского среднего класса.


Музыканты:
Текущий состав:
Thommy Price : Барабаны
Enzo : Бас-гитара
Joan Jett : Вокал, Гитара
Dougie Needles : Гитара

Бывшие участники:
Lee Crystal : Барабаны
Gary Ryan : Бас-гитара, Бэк-вокал
Ricky Byrd : Гитара, Бэк-вокал


Wikipedia | YouTube | Facebook | Official page


Greatest Hits 2 CD:

2010 - Disc 1 (FLAC (tracks+.cue)) ▼


Продолжительность: 00:30:50

Tреклист:

01.Joan Jett & The Blackhearts - Cherry Bomb( 02:33 )
02.Joan Jett & The Blackhearts - You Drive Me Wild( 03:52 )
03.Joan Jett & The Blackhearts - School Days( 03:02 )
04.Joan Jett & The Blackhearts - Love Is Pain( 03:29 )
05.Joan Jett & The Blackhearts - Bad Reputation( 02:47 )
06.Joan Jett & The Blackhearts - You Dont Know What Youve Got( 03:42 )
07.Joan Jett & The Blackhearts - I Want You( 02:42 )
08.Joan Jett & The Blackhearts - I Love Rock N Roll( 02:55 )
09.Joan Jett & The Blackhearts - (Im Gonna) Run Away( 02:28 )
10.Joan Jett & The Blackhearts - Crimson And Clover( 03:16 )

Лог создания рипа ▼Text
X Lossless Decoder version 20100323 (116.7)

XLD extraction logfile from 2010-03-27 16:29:49 -0500

Joan Jett & The Blackhearts / Greatest Hits [Disc 1]

Used drive : MATSHITA DVD-R UJ-875 (revision DA09)

Use cdparanoia mode : YES (CDParanoia III 10.2 engine)
Disable audio cache : OK for the drive with cache less than 2750KB
Make use of C2 pointers : NO
Read offset correction : 102
Max retry count : 100

TOC of the extracted CD
Track | Start | Length | Start sector | End sector
---------------------------------------------------------
1 | 00:00:00 | 02:33:03 | 0 | 11477
2 | 02:33:03 | 03:52:25 | 11478 | 28902
3 | 06:25:28 | 03:02:31 | 28903 | 42583
4 | 09:27:59 | 03:29:73 | 42584 | 58331
5 | 12:57:57 | 02:47:36 | 58332 | &
93c0ecd9c5ce21ab383358be20f470ddb65c6f61(2010) Joan Jett & The Blackhearts / Greatest Hits (Rock, Hard Rock, Punk Rock) [FLAC (tracks+.cue), lossless] (2010) Joan Jett & The Blackhearts / Greatest Hits (Rock, Hard Rock, Punk Rock) [FLAC (tracks+.cue), lossless] " />

Аплоадер: Админ, дата: 3-06-2012, 03:32, торрент скачан: 359 раз

Понравилась раздача? Посмотрите эти:
  • (2013) VA / Kick-Ass 2(OST) [MP3, 320/CBR]
  • (Дискография, 2009-2013) Ghosts Of Paraguay (Electronic, Ambient, Dubstep) ...
  • (2012) The Lumineers / The Lumineers (Indie-folk, Folk-rock) [FLAC (tracks+ ...
  • (2013) Paramore / Paramore (Japan Edition) (Alternative Rock) [FLAC (tracks ...
  • (2009) Ozzy Osbourne / Greatest Hits (2CD) (Heavy Metal, Hard Rock) [FLAC ( ...
  • (2010,сборник) Scorpions / Greatest Hits (Hard Rock) [MP3, 320/CBR]
  • (2005) Blondie / Greatest Hits (Rock, Punk, Pop-Rock) [MP3, 320kbps/CBR]
  • (2005) Joan Crowe / Bird on the Wire (Jazz) [MP3, 320 kbps/CBR]
  • (2012, сборник) VA / Rock Media Group #4 Compilation (Hard Rock / Classic R ...
  • (2009) QUEEN / Absolute Greatest (Rock) [FLAC (tracks+.cue) lossless]
  • (2010)Scorpions/Sting In The Tail [FLAC (tracks+cue), lossless]
  • (2010) Bloodhound Gang / Show Us Your Hits (Alternative Rock,Comedy Punk) [ ...
  • (2007, 5 CDs Box set) VA / 100 Hits - Rock (Hard Rock, Classic Rock) [FLAC ...
  • (2012) Bruce Springsteen / Wrecking Ball (Folk Rock) [FLAC (tracks+.cue),l ...
  • (2008) Eric Clapton / 461 Ocean Boulevard (Deluxe Edition, 2CD, Japan SHM-C ...
  • (2012) Norah Jones / Little Broken Hearts (Vocal Jazz, Alternative Rock) [F ...
  • (2012) Linkin Park / LP Underground 12 (Alternative Rock) [FLAC (tracks+.cu ...
  • Bon Jovi / Greatest Hits: The Ultimate Video Collection [2010, Hard Rock, D ...
  • [PS3] Guitar Hero Smash Hits [FULL] [ENG]
  • (2012) DANOO / Basswerk Files 057 Danoo (Drum & Bass) [MP3 (WEB), 320/CBR]
  • (1993) Крис Кельми / Greatest Hits (Pop-Rock) [FLAC (image+.cue), lossless] ...
  • (2010)Элизиум / Greatest Hits (Punk) [MP3, 320/CBR]
  • (2011, сборник) VA / Очень плохая училка / Bad Teacher (Unofficial OST) [MP ...
  • (2012) Young Guns / Bones (Alternative Rock) [FLAC (tracks +.cue), lossless ...
  • (2011) 7eventh Time Down / Alive In You (Alternative Rock/Modern Rock/Chris ...
  • Информация
    Посетители, находящиеся в группе Гости, не могут оставлять комментарии к данной публикации.