вход на сайт

Имя пользователя :
Пароль :

Восстановление пароля Регистрация
(Дискография, 2006-2011) Art of Dying (Alt.Rock/ Post-Grunge) [FLAC (tracks+.cue), lossless]
Рейтинг:
(голосов: 1)



[img]{THEME}/images/logopost.png[/img]



Дискография
Исполнитель: Art of Dying
Страна: Vancouver, British Columbia, Canada
Жанр: Alternative Rock | Hard Rock | Post-Grunge
Формат: FLAC (tracks +.cue)
Битрейт: lossless
Продолжительность: 1:30:43

Об исполнителе: Art Of Dying сравнительно молодая группа. Дебютный альбом под названием «Art Of Dying» был выпущен в Великобритании 9 октября 2006 года, на их собственном лейбле, Thorny Bleeder Records, при поддержке Revolver/Universal. Этот альбом был выпущен в Интернет для розничной продажи в США, при помощи магазина CD Baby, 3 февраля 2007 года прошла презентация альбома для оставшегося мира.

Их песня под названием You Don’t Know Me вошла в саундтрек к игре FlatOut: Ultimate Carnage.

Студийные альбомы:▼
2006 - Art Of Dying▼

Продолжительность: 48:10

Tреклист:
01. Get Through This (2:28)
02. You Dont Know Me (3:10)
03. I Will Be There (3:41)
04. Fits Of Clarity (4:14)
05. Inside Its Raining (3:52)
06. Completely (3:16)
07. Do What You Can (3:22)
08. Crime (4:40)
09. Car Crash (3:49)
10. Alone (3:46)
11. Build A Wall (6:31)
12. Dog Is My Copilot (5:23)

Индексная карта .cue ▼REM GENRE Rock
REM DATE 2006
REM DISCID 8C0B4A0C
REM COMMENT "ExactAudioCopy v0.99pb4"
PERFORMER "Art Of Dying"
TITLE "Art Of Dying"
FILE "01. Get Through This.wav" WAVE
TRACK 01 AUDIO
TITLE "Get Through This"
PERFORMER "Art Of Dying"
INDEX 01 00:00:00
FILE "02. You Dont Know Me.wav" WAVE
TRACK 02 AUDIO
TITLE "You Dont Know Me"
PERFORMER "Art Of Dying"
INDEX 01 00:00:00
FILE "03. I Will Be There.wav" WAVE
TRACK 03 AUDIO
TITLE "I Will Be There"
PERFORMER "Art Of Dying"
INDEX 01 00:00:00
FILE "04. Fits Of Clarity.wav" WAVE
TRACK 04 AUDIO
TITLE "Fits Of Clarity"
PERFORMER "Art Of Dying"
INDEX 01 00:00:00
FILE "05. Inside Its Raining.wav" WAVE
TRACK 05 AUDIO
TITLE "Inside Its Raining"
PERFORMER "Art Of Dying"
INDEX 01 00:00:00
FILE "06. Completely.wav" WAVE
TRACK 06 AUDIO
TITLE "Completely"
PERFORMER "Art Of Dying"
INDEX 01 00:00:00
FILE "07. Do What You Can.wav" WAVE
TRACK 07 AUDIO
TITLE "Do What You Can"
PERFORMER "Art Of Dying"
INDEX 01 00:00:00
FILE "08. Crime.wav" WAVE
TRACK 08 AUDIO
TITLE "Crime"
PERFORMER "Art Of Dying"
INDEX 01 00:00:00
FILE "09. Car Crash.wav" WAVE
TRACK 09 AUDIO
TITLE "Car Crash"
PERFORMER "Art Of Dying"
INDEX 01 00:00:00
FILE "10. Alone.wav" WAVE
TRACK 10 AUDIO
TITLE "Alone"
PERFORMER "Art Of Dying"
INDEX 01 00:00:00
FILE "11. Build A Wall.wav" WAVE
TRACK 11 AUDIO
TITLE "Build A Wall"
PERFORMER "Art Of Dying"
INDEX 01 00:00:00
FILE "12. Dog Is My Copilot.wav" WAVE
TRACK 12 AUDIO
TITLE "Dog Is My Copilot"
PERFORMER "Art Of Dying"
INDEX 01 00:00:00
Лог создания рипа ▼Exact Audio Copy V0.99 prebeta 4 from 23. January 2008

EAC extraction logfile from 17. October 2009, 14:53

Art Of Dying / Art Of Dying

Used drive: PIONEER DVD-RWDVR-111L Adapter: 0ID: 0
&n
5a5b24ac5a09bb00f4d1770fdcc3c8a5bcbfeb7c(Дискография, 2006-2011) Art of Dying (Alt.Rock/ Post-Grunge) [FLAC (tracks+.cue), lossless] (Дискография, 2006-2011) Art of Dying (Alt.Rock/ Post-Grunge) [FLAC (tracks+.cue), lossless] " />

Аплоадер: Админ, дата: 1-06-2012, 12:53, торрент скачан: 359 раз

Понравилась раздача? Посмотрите эти:
  • (2006) The Beatles / Love (Rock) [24bit - 96kHz] [FLAC(image+.cue), lossles ...
  • (2012) The Doors - L.A. Woman(1971)[lp] [24bit - 96kHz] [FLAC(image+.cue), ...
  • (2009) Nightwish / Made In Hong Kong (And In Various Other Places) (Sympho- ...
  • (2013) An Act Of Treachery / Reflections Of A Dying World (Melodic Death/ T ...
  • (2013) Dying Source / Spheria (Melodic Death Metal) [MP3, 320/CBR]
  • (2013) Behead The Dead / A Dying Age (Groove Metal/ Metalcore) [MP3, 320/CB ...
  • (2013) Sedulity / The Valley Of Dying Stars (Progressive Thrash/ Death Meta ...
  • (Дискография, 2006-2011) Art of Dying (Alt.Rock/ Post-Grunge) [MP3, 128-320 ...
  • (2011) Worth Dying For / Love Riot (Alt.Rock /Electronic) [MP3, 320/CBR]
  • (Soundtrack, 2004) Massive Attack - Danny The Dog / Дэнни Цепной Пес - [F ...
  • (2001) Андрей Алексин / Ш*лава (Pop) [FLAC (image+.cue), lossless]
  • (2012) Linkin Park / Burn It Down (Alternative Rock) (Single) [FLAC (image+ ...
  • [LP] (2011) Adele / 21 (2 CD) (XL Recordings LP; DMR) (R&B, Soul, Gospel, B ...
  • Before the dawn / Dying sun [2008, Melodic death metal, TVRip]
  • (2012) Madonna / Superstar (Pop) [FLAC (image+.cue), lossless]
  • (2010) Sadistik & Kid Called Computer - The Art of Dying (Abstract / Underg ...
  • (2010) I:Scintilla / Dying & Falling (Industrial Rock/Electronic) [MP3, 187 ...
  • (2012) Art of Dying / Let the Fire Burn (Acoustic Alt. Rock) [MP3, 320/CBR] ...
  • (2012) Espermachine / Dying Life (Futurepop/ЕВМ) [MP3, 320/CBR]
  • (2012) My Dying Bride / A Map of All Our Failures (Gothic, Doom Metal) [MP3 ...
  • Информация
    Посетители, находящиеся в группе Гости, не могут оставлять комментарии к данной публикации.