вход на сайт

Имя пользователя :
Пароль :

Восстановление пароля Регистрация
(Дискография, 1995-2005) The Bloodhound Gang (Alternative, Punk-Rock) [FLAC (tracks+.cue), lossless]
Рейтинг:
(голосов: 1)



[img]{THEME}/images/logopost.png[/img]



Дискография
Исполнитель:The Bloodhound Gang
Страна: США
Жанр:Alternative, Punk-Rock
Формат: FLAC (tracks+.cue)
Битрейт: lossless
Log-файл: Присутствует
Продолжительность: 04:51:18

Описание: Bloodhound Gang — американская рок-группа из Филадельфии, образована в 1992 году вокалистом Джимми Попом и гитаристом Дэдди Лонг Легзом. Темой песен в основном является секс и связанные с ним вещи.

Состав группы:
Джимми Поп (Джеймс Фрэнкс, р. 27 августа 1972) — вокал, электро- и акустическая гитары
Дэниел П. Картер — гитара, бэк-вокал
Эвил Джаред Хасселхофф (Джаред Хенеган, р. 5 августа 1971) — бас-гитара, бэк-вокал
Ди-Джей Кю-Болл (Харри Дин, р. 8 октября 1974) — вертушка, вокал (иногда использует синтезатор)
The Yin (Адам Перри, р. 29 Декабря 1969) — ударные


Wikipedia | Last.fm | Myspace | Official page

Студийные:

1995 - Use Your Fingers (FLAC/divacks+.cue) ▼


Продолжительность: 00:40:56

Tреклист:
01. Rip Taylor Is God (01:23)
02. We Are the Knuckleheads (02:39)
03. Legend in My Spare Time (03:05)
04. B.H.G.P.S.A. (00:22)
05. Mamma Say (02:59)
06. Kids in America (04:23)
07. Youre Pretty When Im Drunk (03:56)
08. The Evils of Plancenta Hustling (00:19)
09. One Way (03:05)
10. Shitty Record Offer (00:58)
11. Go Down (02:26)
12. Earlameyer the Butt Pirate (00:09)
13. No Rest For the Wicked (02:50)
14. She Aint Got No Legs (02:28)
15. We Like Meat (00:04)
16. Coo Coo Ca Choo (02:36)
17. Rang Dang (03:02)
18. Nightmare at the Apollo (00:56)
19. K.I.D.S. Incorporated (02:20)
20. Bonus Track (00:47)

Лог создания рипа ▼Text
Exact Audio Copy V0.99 prebeta 1 from 25. May 2007

EAC extraction logfile from 18. July 2007, 7:21

The Bloodhound Gang / Use Your Fingers

Used drive : PLEXTOR DVDR PX-760A Adapter: 0 ID: 0

Read mode : Secure
Utilize accurate stream : Yes
Defeat audio cache : Yes
Make use of C2 pointers : No

Read offset correction : 30
Overread into Lead-In and Lead-Out : No
Fill up missing offset samples with silence : Yes
Delete leading and trailing silent blocks : No
Used interface : Native Win32 interface for Win NT & 2000
Gap handling : Appended to previous track

Used output format : User Defined Encoder
Selected bitrate : 1024 kBit/s
Quality : High
Add ID3 tag : No
Command line compressor : C:Program FilesFLACflac.exe
Additional command line options : -8 -V -T "ARTIST=%a" -T "TITLE=%t" -T "ALBUM=%g" -T "DATE=%y" -T "TRACKNUMBER=%n" -T "GENRE=%m" -T "COMMENT=EAC Flac 1.1.4 -8" %s

TOC of the extracted CD

Track | Start | Length | Start sector | End sector
---------------------------------------------------------
1 | 0:00.00 | 1:23.20 | 0 | 6244
2 | 1:23.20 | 2:39.30 | 6245 | 18199
3 | 4:02.50 | 3:05.42 | 18200 | 32116
2bf09efbc9a5f9846cfed2978f9f1e385bb0d362(Дискография, 1995-2005) The Bloodhound Gang (Alternative, Punk-Rock) [FLAC (tracks+.cue), lossless] (Дискография, 1995-2005) The Bloodhound Gang (Alternative, Punk-Rock) [FLAC (tracks+.cue), lossless] " />

Аплоадер: Админ, дата: 26-05-2012, 04:46, торрент скачан: 359 раз

Понравилась раздача? Посмотрите эти:
  • (2013) Fall Out Boy / Save Rock and Roll (Pop-Punk) [ALAC (tracks), lossles ...
  • (Дискография, 2006-2012) Angels&Airwaves (AVA) (Alternative) [FLAC(tracks+. ...
  • (2010) Вячеслав Бутусов и Ю-Питер / Цветы и Тернии (Rock) [FLAC (tracks + . ...
  • (2010) Bloodhound Gang / Show Us Your Hits (Alternative Rock,Comedy Punk) [ ...
  • (2010) Zaz / Zaz (Nu jazz, Chanson, Soul) [FLAC (tracks+.cue), lossless]
  • (Дискография, 1994-2011) Cake (Indie Rock) [FLAC (tracks+.cue), losslesss]
  • (2011) Disturbed / The Lost Children (Alternative Metal) [FLAC (tracks+.cue ...
  • (2011) Daughtry / Break the Spell (Deluxe Edition) (Alt. Rock / Modern Rock ...
  • (2009) Dead By Sunrise / Out Of Ashes (Japanese Edition) (Alternative Rock) ...
  • (2011) B.B. King / Icon (Blues) [FLAC (tracks+.cue), lossless]
  • (2012) Mark Lanegan Band / Blues Funeral (Alternative Rock/Blues Rock) [FLA ...
  • (1996) The Rasmus / Peep (Finnish Version) (Alternative Rock) [FLAC (tracks ...
  • (2006) The Rasmus / Shot (Single) (Alternative Rock) [FLAC (tracks+.cue), l ...
  • (2011) Linkin Park / Iridescent (Alternative Rock) [FLAC(image+.cue), lossl ...
  • (2011) Ляпис Трубецкой / Веселые картинки (Rock) [FLAC (tracks+.cue), lossl ...
  • (2011) Дельфин / Существо (Alternative|Experimental) [FLAC (tracks+.cue), l ...
  • (2011) Ленинград / Хна (Rock) [FLAC (tracks+.cue), lossless]
  • (2012) Buckethead / Electric Sea (Experimental/Acoustic/Ambient/Rock) [FLAC ...
  • (2012) Les Friction / Les Friction (Alt. Rock/Neo-Classical/Orchestral) [FL ...
  • (2011) SeeS / The enD (Progressive/Math Metal) [FLAC (tracks+.cue), lossles ...
  • (2011) Downhere / On The Altar Of Love (Alternative Rock/Christian Rock) [F ...
  • (2012) Our Lady Peace / Curve (Alternative/Rock) [FLAC (tracks+.cue), lossl ...
  • (2012) Nine Lashes / World We View (Alt.Rock/Alt.Metal/Christian) [FLAC (tr ...
  • (2011) Phinehas / Thegodmachine (Metalcore) [FLAC (tracks+.cue), lossless]
  • (2011) Skindred / Union Black (Alternative Metal, Ragga-Metal) [FLAC (track ...
  • Информация
    Посетители, находящиеся в группе Гости, не могут оставлять комментарии к данной публикации.