вход на сайт

Имя пользователя :
Пароль :

Восстановление пароля Регистрация
(2012) Linkin Park / Burn It Down (Alternative Rock) (Single) [FLAC (image+.cue), Lossless]
Рейтинг:
(голосов: 1)



[img]{THEME}/images/logopost.png[/img]



Исполнитель: Linkin Park
Альбом: Burn It Down
Страна: USA
Тип альбома: Single
Год выпуска: 2012
Жанр: Alternative Rock
Формат: FLAC (image+.cue)
Битрейт: Lossless
Log-файл: Присутствует
Продолжительность: 00:16:04



TRACKLIST:
01. Burn It Down (03:51)
02. New Divide (Live) (04:29)
03. In The End (Live) (03:39)
04. What Ive Done (Live) (04:04)

Лог создания рипа ▼Exact Audio Copy V1.0 beta 3 from 29. August 2011

EAC extraction logfile from 16. May 2012, 10:28

Linkin Park / Burn It Down

Used drive : SlimtypeBD E DS4E1S Adapter: 0 ID: 1

Read mode : Secure
Utilize accurate stream : Yes
Defeat audio cache : Yes
Make use of C2 pointers : No

Read offset correction : 6
Overread into Lead-In and Lead-Out : No
Fill up missing offset samples with silence : Yes
Delete leading and trailing silent blocks : No
Null samples used in CRC calculations : Yes
Used interface : Native Win32 interface for Win NT & 2000

Used output format : User Defined Encoder
Selected bitrate : 768 kBit/s
Quality : High
Add ID3 tag : No
Command line compressor : C:Program Files (x86)Exact Audio CopyFLACFLAC.EXE
Additional command line options : -V -8 -T "Date=%year%" -T "Genre=%genre%" %source%

TOC of the extracted CD

Track | Start | Length | Start sector | End sector
---------------------------------------------------------
1 | 0:00.00 | 3:51.63 | 0 | 17387
2 | 3:51.63 | 4:29.12 | 17388 | 37574
3 | 8:21.00 | 3:39.02 | 37575 | 54001
4 | 12:00.02 | 4:04.46 | 54002 | 72347

Range status and errors

Selected range

Filename G:Linkin Park - Burn It Down [2012]Linkin Park - Burn It Down.wav

Peak level 99.9 %
Extraction speed 3.3 X
Range quality 100.0 %
Test CRC 2E34887A
Copy CRC 2E34887A
Copy OK

No errors occurred

AccurateRip summary

Track 1 not present in database
Track 2 not present in database
Track 3 not present in database
Track 4 not present in database

None of the tracks are present in the AccurateRip database

End of status report

==== Log checksum 572485C3541251F3F0F23867C23821E5CE710B385A53475FEE87DE7CD4D1815F ====

Содержание индексной карты (.CUE) ▼REM GENRE Alternative
REM DATE 2012
REM DISCID 1D03C404
REM COMMENT "ExactAudioCopy v1.0b3"
CATALOG 0093624950509
PERFORMER "Linkin Park"
TITLE "Burn It Down"
FILE "Linkin Park - Burn It Down.flac" WAVE
TRACK 01 AUDIO
TITLE "Burn It Down"
PERFORMER "Linkin Park"
ISRC H2OB11200587
INDEX 01 00:00:00
TRACK 02 AUDIO
TITLE "New Divide (Live)"
PERFORMER "Linkin Park"
ISRC H2OB11200666
INDEX 01 03:51:63
TRACK 03 AUDIO
TITLE "In The End (Live)"
PERFORMER "Linkin Park"
ISRC H2OB11200667
INDEX 01 08:21:00
TRACK 04 AUDIO
TITLE "What Ive Done (Live)"
PERFORMER "Linkin Park"
ISRC H2OB11200668
INDEX 01 12:00:02


a04c50b39f14bd7d7522898cff9a5e61fa19a54a(2012) Linkin Park / Burn It Down (Alternative Rock) (Single) [FLAC (image+.cue), Lossless] (2012) Linkin Park / Burn It Down (Alternative Rock) (Single) [FLAC (image+.cue), Lossless] " />

Аплоадер: Админ, дата: 18-05-2012, 18:11, торрент скачан: 359 раз

Понравилась раздача? Посмотрите эти:
  • (2013) Linkin Park / Recharged (Electronic Rock / Electro House) [FLAC (ima ...
  • (2013) Linkin Park & Steve Aoki / A Light That Never Comes (Electronic Rock ...
  • (2013) Linkin Park / Recharged (Alternative Rock, Electronic) [MP3, 320/CBR ...
  • (2013) Linkin Park / Castle Of Glass (Alternative) [FLAC (image+.cue), Loss ...
  • (2012) Eminem & Linkin Park / Collision Course II (Rap) [MP3, 320/CBR]
  • (2010) Linkin Park / A Decade Underground (Alternative Rock) [mp3, 320 kbps ...
  • (2011) Linkin Park / LP Underground 11 (Alternative) [MP3,320/CBR]
  • (2012) Linkin Park / Burn It Down (CD Single) (Synth Rock) [MP3, 320/CBR]
  • (2012) Linkin Park/ The Top Hits (Rock) [MP3, 320/CBR]
  • (2012) Linkin Park / Live in Bristow (Alt.Rock/Nu-Metal) [MP3, 320/CBR]
  • (2012) Linkin Park /Live in Alpharetta, GA (Alternative Rock) [mp3, 320/SB ...
  • (2011) Linkin Park / LP Underground 11 (Alternative Rock) [FLAC (Image+cue) ...
  • (2012) Linkin Park / Living Things (Alternative Rock, Electronic Rock, Rap ...
  • (2012) Linkin Park / Living Things (Japan Edition) (Alternative, Rap-Rock) ...
  • LPTV (Linkin Park) / Making Of The Burn It Down (Part 1) [2012, Alternative ...
  • LPTV (Linkin Park) / Making Of The Burn It Down (Part 2) [2012, Alternative ...
  • (2010) Linkin Park / A Thousand Suns (Alternative, Electronic) [FLAC (track ...
  • (2011) Linkin Park / Iridescent (Alternative Rock) [FLAC(image+.cue), lossl ...
  • Linkin Park / Burn It Down (Billboard Music Awards 2012) [2012, Alternative ...
  • Linkin Park / Burn It Down (Billboard Music Awards 2012) [2012, Alternative ...
  • Linkin Park / Burn It Down [2012, Alternative Rock, HDRip]
  • Linkin Park / Burn It Down (Unleashed MV) [2012, Alternative Rock, WebRip]
  • Linkin Park / Burn It Down (Lyric Video) [2012, Alternative Rock, WebRip]
  • Linkin Park / Burn It Down [2012, Alternative Rock, HDRip]
  • (2012) Linkin Park / Burn It Down (Remixes Promo CD) (Alternative Rock / Da ...
  • Информация
    Посетители, находящиеся в группе Гости, не могут оставлять комментарии к данной публикации.