вход на сайт

Имя пользователя :
Пароль :

Восстановление пароля Регистрация
(2012) Son Of A Bad Man / Heres To The Falling In... (Alt.Rock) [FLAC (tracks+.cue), lossless]
Рейтинг:
(голосов: 1)



[img]{THEME}/images/logopost.png[/img]





Альбом: Heres To The Falling In...
Тип альбома: Студийный
Год выпуска: 2012
Страна: США
Жанр: Alt.Rock
Формат: FLAC (tracks+.cue)
Битрейт: lossless
Log-файл: Присутствует
Продолжительность: 00:42:59


01. Cant Have You (03:28)
02. Idea Of Me And You (02:57)
03. Miracle Jet (03:33)
04. Love Like Mine (featuring Runner Runner) (02:58)
05. Over It (03:13)
06. Shrug It Off (02:45)
07. Nobody Tells You Bout Goodbye (04:14)
08. I Still Do (03:47)
09. Soldier With A Song (03:33)
10. Die Alone (04:01)
11. Harvest (featuring Jordyn Jackson) (08:25)


"Отчет "EAC"" ▼TextExact Audio Copy V1.0 beta 3 from 29. August 2011

EAC extraction logfile from 27. April 2012, 13:59

Son Of A Bad Man / Heres To The Falling In...

Used drive : TSSTcorpCDDVDW SH-S223Q Adapter: 1 ID: 1

Read mode : Secure
Utilize accurate stream : Yes
Defeat audio cache : Yes
Make use of C2 pointers : No

Read offset correction : 6
Overread into Lead-In and Lead-Out : No
Fill up missing offset samples with silence : Yes
Delete leading and trailing silent blocks : No
Null samples used in CRC calculations : Yes
Used interface : Native Win32 interface for Win NT & 2000
Gap handling : Appended to previous track

Used output format : User Defined Encoder
Selected bitrate : 128 kBit/s
Quality : High
Add ID3 tag : No
Command line compressor : C:Program Files (x86)Exact Audio CopyFlacflac.exe
Additional command line options : --best --picture="C:FLACfolder.jpg" -P 4096 -V -T "ARTIST=%artist%" -T "TITLE=%title%" -T "ALBUM=%albumtitle%" -T "TRACKNUMBER=%tracknr%" %source% -o %dest%

TOC of the extracted CD

Track | Start | Length | Start sector | End sector
---------------------------------------------------------
1 | 0:00.00 | 3:28.58 | 0 | 15657
2 | 3:28.58 | 2:57.50 | 15658 | 28982
3 | 6:26.33 | 3:33.14 | 28983 | 44971
4 | 9:59.47 | 2:58.07 | 44972 | 58328
5 | 12:57.54 | 3:13.24 | 58329 | 72827
6 | 16:11.03 | 2:45.59 | 72828 | 85261
7 | 18:56.62 | 4:14.28 | 85262 | 104339
8 | 23:11.15 | 3:47.35 | 104340 | 121399
9 | 26:58.50 | 3:33.28 | 121400 | 137402
10 | 30:32.03 | 4:01.54 | 137403 | 155531
11 | 34:33.57 | 8:25.25 | 155532&nb
6ac45c4d3c42dad513f01649589d742a6efc0014(2012) Son Of A Bad Man / Heres To The Falling In... (Alt.Rock) [FLAC (tracks+.cue), lossless] (2012) Son Of A Bad Man / Heres To The Falling In... (Alt.Rock) [FLAC (tracks+.cue), lossless] " />

Аплоадер: Админ, дата: 14-05-2012, 14:15, торрент скачан: 359 раз

Понравилась раздача? Посмотрите эти:
  • (2013) Bon Jovi / What About Now (Deluxe Edition) (Hard Rock) [FLAC (tracks ...
  • (2010) Zaz / Zaz (Nu jazz, Chanson, Soul) [FLAC (tracks+.cue), lossless]
  • (2011) Daughtry / Break the Spell (Deluxe Edition) (Alt. Rock / Modern Rock ...
  • (2009) Dead By Sunrise / Out Of Ashes (Japanese Edition) (Alternative Rock) ...
  • (2011) Виктория - победительница / Victorious (OST) [FLAC (tracks+.cue), lo ...
  • (2012) Mark Lanegan Band / Blues Funeral (Alternative Rock/Blues Rock) [FLA ...
  • (2012) Yiruma / Stay In Memory (New Age, Instrumental, Neoclassical, Piano) ...
  • (2012, Сборник) VA / Saxophone Golden Best (Jazz, Smooth Jazz) [FLAC (track ...
  • (1996) The Rasmus / Peep (Finnish Version) (Alternative Rock) [FLAC (tracks ...
  • (2011) Scorpions / Comeblack (Hard Rock) [FLAC (tracks+.cue)lossless]
  • (2011) Дельфин / Существо (Alternative|Experimental) [FLAC (tracks+.cue), l ...
  • (2011) Ленинград / Хна (Rock) [FLAC (tracks+.cue), lossless]
  • (2012) Buckethead / Electric Sea (Experimental/Acoustic/Ambient/Rock) [FLAC ...
  • (2012) Les Friction / Les Friction (Alt. Rock/Neo-Classical/Orchestral) [FL ...
  • (2011) SeeS / The enD (Progressive/Math Metal) [FLAC (tracks+.cue), lossles ...
  • (2011) Downhere / On The Altar Of Love (Alternative Rock/Christian Rock) [F ...
  • (2012) Our Lady Peace / Curve (Alternative/Rock) [FLAC (tracks+.cue), lossl ...
  • (2011) The Browning / Burn This World (Deathcore/Electronic) [FLAC (tracks+ ...
  • (2012) Nine Lashes / World We View (Alt.Rock/Alt.Metal/Christian) [FLAC (tr ...
  • (2011) Phinehas / Thegodmachine (Metalcore) [FLAC (tracks+.cue), lossless]
  • Информация
    Посетители, находящиеся в группе Гости, не могут оставлять комментарии к данной публикации.