вход на сайт

Имя пользователя :
Пароль :

Восстановление пароля Регистрация
(2012) Uriah Heep / Logical Revelations (Hard Rock) [FLAC (image +.cue), lossless]
Рейтинг:
(голосов: 1)



[img]{THEME}/images/logopost.png[/img]





Альбом: Logical Revelations
Тип альбома: Compilation
Год выпуска: 2012
Страна: Великобритания
Жанр: Hard Rock
Формат: FLAC (image +.cue)
Битрейт: lossless
Log-файл: Присутствует
Продолжительность: 01:17:26


01. Against the odds(6:13)
02. Time of revelation(4:02)
03. Universal wheels(5:39)
04. Logical progression(6:10)
05. Words in the distance(4:46)
06. Between two worlds(6:27)
07. I hear voices(3:58)
08. In the moment(6:23)
09. Shelter from the rain(6:09)
10. Everything in life(3:17)
11. The wizard(3:47)
12. Gypsy(6:54)
13. Look at yourself(4:54)
14. Lady in black(5:38)
15. Easy livin(3:07)


Отчет "EAC" ▼TextExact Audio Copy V1.0 beta 3 from 29. August 2011

EAC extraction logfile from 18. March 2012, 9:44

Uriah Heep / Logical Revelations

Used drive : MATSHITABD-CMB UJ242AS Adapter: 0 ID: 1

Read mode : Secure
Utilize accurate stream : Yes
Defeat audio cache : Yes
Make use of C2 pointers : No

Read offset correction : 103
Overread into Lead-In and Lead-Out : No
Fill up missing offset samples with silence : Yes
Delete leading and trailing silent blocks : No
Null samples used in CRC calculations : Yes
Used interface : Installed external ASPI interface

Used output format : User Defined Encoder
Selected bitrate : 1024 kBit/s
Quality : High
Add ID3 tag : Yes
Command line compressor : C:Program Files (x86)Exact Audio CopyFlacflac.exe
Additional command line options : -V -8 -T "Date=%year%" -T "Genre=%genre%" %source%

TOC of the extracted CD

Track | Start | Length | Start sector | End sector
---------------------------------------------------------
1 | 0:00.00 | 6:12.74 | 0 | 27973
2 | 6:12.74 | 4:02.21 | 27974 | 46144
3 | 10:15.20 | 5:39.27 | 46145 | 71596
4 | 15:54.47 | 6:10.29 | 71597 | 99375
5 | 22:05.01 | 4:45.74 | 99376 | 120824
6 | 26:51.00 | 6:26.63 | 120825 | 149837
7 | 33:17.63 | 3:58.00 | 149838 | 167687
8 | 37:15.63 | 6:23.23 | 167688 | 196435
9 | 43:39.11 | 6:08.72 | 196436 | 224107
10 | 49:48.08 | 3:17.25 | 224108 | 238907
11 | 53:05.33 | 3:47.00 | 238908 | 255932
12 | 56:52.33 | 6:54.00 | 255933 | 286982
13 | 63:46.33 | 4:54.19 | 286983 | 309051
 
ec9bd6f8c3a597bc110603d8ab9cff5562bb8e0c(2012) Uriah Heep / Logical Revelations (Hard Rock) [FLAC (image +.cue), lossless] (2012) Uriah Heep / Logical Revelations (Hard Rock) [FLAC (image +.cue), lossless] " />

Аплоадер: Админ, дата: 2-04-2012, 17:06, торрент скачан: 359 раз

Понравилась раздача? Посмотрите эти:
  • (1996) George Michael / Older (1st Press Japan) (Electronic, Pop/Rock) [FLA ...
  • (2013) Leslie West / Still Climbing (Rock, Hard Rock, Blues Rock) [FLAC (im ...
  • (2013) Paul McCartney / New (Deluxe Edition) (Rock) [FLAC (image,+.cue), lo ...
  • (2010) Ассаи / Лифт (Rap) [FLAC(image+.cue), lossless]
  • (2011) Uriah Heep - Into The Wild (Hard Rock, Progressive Rock)[FLAC (track ...
  • (2011) The Prodigy / Worlds On Fire (Big Beat, Rave) [FLAC (image+.cue), lo ...
  • (2011) Linkin Park / LP Underground 11 (Alternative Rock) [FLAC (Image+cue) ...
  • (Дискография, 1988-2011) Kingdom Come (Hard&Heavy,Glam Metal) [FLAC (image+ ...
  • (2011) Linkin Park / Iridescent (Alternative Rock) [FLAC(image+.cue), lossl ...
  • (2011) Stargazery / Eye On The Sky (Heavy Metal) [FLAC (image+.cue), lossle ...
  • (2011) Scorpions / Comeblack (Hard Rock) [FLAC (tracks+.cue)lossless]
  • (2011) Ленинград / Хна (Rock) [FLAC (tracks+.cue), lossless]
  • (2012) Les Friction / Les Friction (Alt. Rock/Neo-Classical/Orchestral) [FL ...
  • (2012) Anneke van Giersbergen / Everything Is Changing (Alternative Rock/Fe ...
  • (2011) Downhere / On The Altar Of Love (Alternative Rock/Christian Rock) [F ...
  • (2011) Volumes / Via (Progressive Metalcore/Math Metal) [FLAC (image+.cue), ...
  • (2012) Fox / 2012 (Melodic Hard Rock) [FLAC (image +.cue), lossless]
  • (2012) Our Lady Peace / Curve (Alternative/Rock) [FLAC (tracks+.cue), lossl ...
  • (2012) Soulfly / Enslaved [Deluxe Edition] (Groove Metal/Thrash Metal) [FLA ...
  • (2012) Game Over / For Humanity (Thrash Metal) [FLAC (image+.cue), lossless ...
  • Информация
    Посетители, находящиеся в группе Гости, не могут оставлять комментарии к данной публикации.