вход на сайт

Имя пользователя :
Пароль :

Восстановление пароля Регистрация
(2012) Bruce Springsteen / Wrecking Ball (Folk Rock) [FLAC (tracks+.cue),lossless]
Рейтинг:
(голосов: 1)



[img]{THEME}/images/logopost.png[/img]





Альбом: Wrecking Ball
Тип альбома: Студийный
Год выпуска: 2012
Страна: США
Жанр: Folk Rock
Формат: FLAC (tracks+.cue)
Битрейт: lossless
Продолжительность: 01:01:54


01. We Take Care Of Our Own (03:53)
02. Easy Money (03:36)
03. Shackled And Drawn (03:46)
04. Jack Of All Trades (05:59)
05. Death To My Hometown (03:28)
06. This Depression (04:07)
07. Wrecking Ball (05:49)
08. Youve Got It (03:48)
09. Rocky Ground (04:40)
10. Land Of Hope And Dreams (06:58)
11. We Are Alive (05:43)
12. Swallowed Up (In The Belly Of The Whale) (05:35)
13. American Land (04:25)


Отчет EAC ▼X Lossless Decoder version 20120226 (139.1)
XLD extraction logfile from 2012-03-02 16:06:28 +0000
Bruce Springsteen / Wrecking Ball
Used drive : YAMAHA CRW-F1E (revision 1.0g)
Ripper mode : XLD Secure Ripper
Disable audio cache : OK for the drive with a cache less than 1375KiB
Make use of C2 pointers : NO
Read offset correction: 733
Max retry count : 100
Gap status: Analyzed, Appended
TOC of the extracted CD
Track | Start|Length| Start sector | End sector
---------------------------------------------------------
1| 00:00:00 | 03:53:71 | 0|17545
2| 03:53:71 | 03:36:41 | 17546|33786
3| 07:30:37 | 03:46:04 | 33787|50740
4| 11:16:41 | 05:59:51 | 50741|77716
5| 17:16:17 | 03:28:50 | 77717|93366
6| 20:44:67 | 04:07:58 | 93367| 111949
7| 24:52:50 | 05:49:38 |111950| 138162
8| 30:42:13 | 03:48:68 |138163| 155330
9| 34:31:06 | 04:40:53 |155331| 176383
10| 39:11:59 | 06:58:04 |176384| 207737
11| 46:09:63 | 05:43:72 |207738| 233534
12| 51:53:60 | 05:35:32 |233535| 258691
13| 57:29:17 | 04:25:07 |258692| 278573
AccurateRip Summary
Disc not found in AccurateRip DB.
All Tracks
Album gain : -7.21 dB
Peak : 1.000000
Statistics
&n
77725f66034b09d62b7b5ba1ef966567dd9779fa(2012) Bruce Springsteen / Wrecking Ball (Folk Rock) [FLAC (tracks+.cue),lossless] (2012) Bruce Springsteen / Wrecking Ball (Folk Rock) [FLAC (tracks+.cue),lossless] " />

Аплоадер: Админ, дата: 18-03-2012, 23:55, торрент скачан: 359 раз

Понравилась раздача? Посмотрите эти:
  • (2013) Kanye West | Yeezus (Rap|Experimental Hip-Hop) [FLAC (tracks+.cue), ...
  • (2012) The Lumineers / The Lumineers (Indie-folk, Folk-rock) [FLAC (tracks+ ...
  • (2013) by M83, Anthony Gonzalez & Joseph Trapanese / Обливион / Oblivion (S ...
  • (2013) Paramore / Paramore (Japan Edition) (Alternative Rock) [FLAC (tracks ...
  • (2013) Bullet For My Valentine / Temper Temper (Japanese Deluxe Edition) (M ...
  • (2012) Taylor Swift / Red (Target Exclusive Deluxe Edition) + Booklet (Pop ...
  • (2012) Владимир Кузьмин / Endorfin (Русский Рок) [FLAC (image+.cue), lossle ...
  • (2010) Faithless / Not Going Home (Trance/House) [FLAC (tracks), lossless]
  • (2010) Katie Melua / The House ( jazz-pop, vocal jazz) [FLAC (tracks + .cu ...
  • (2008) Pink / Funhouse (Pop) [FLAC (tracks) lossless]
  • (1968) Ten Years After / Undead (Rock / Blues / Blues Rock) [Flac (tracks+. ...
  • (2011) Moby / Destroyed (Electronic, Downtempo, Ambient) [FLAC (tracks+.cue ...
  • (2011) Sungha Jung / Irony (Acoustic guitar, Fingerstyle) [FLAC (tracks+.cu ...
  • (2012) Norah Jones / Little Broken Hearts (Vocal Jazz, Alternative Rock) [F ...
  • (2009) Paul Cardall / Sacred Piano (New Age) [FLAC (tracks+.cue), lossless] ...
  • (2012) Hans Zimmer / The Dark Knight Rises (Film score) [FLAC (tracks+.cu ...
  • (2012) Mouse On Mars / Parastrophics (Leftfield, Abstract, Rhythmic Noise, ...
  • (2012) Linkin Park / LP Underground 12 (Alternative Rock) [FLAC (tracks+.cu ...
  • (2012) Ne-Yo / R.E.D. (Target Exclusive Edition) (R&B, Soul, Pop) [FLAC (tr ...
  • (2012) Lana Del Rey / Born To Die (Indie Pop) [FLAC (tracks+.cue), lossless ...
  • (2012) The Fray / Scars & Stories (Alternative/Rock/Piano Rock) [FLAC (trac ...
  • (2012) Unheilig / Lichter der Stadt (Limited Edition, 2CD) (Industrial, Got ...
  • (2012) Young Guns / Bones (Alternative Rock) [FLAC (tracks +.cue), lossless ...
  • (2012) Switchfoot / Vice Re-Verses (Remixes) (Alternative, Christian Rock, ...
  • (2011) 7eventh Time Down / Alive In You (Alternative Rock/Modern Rock/Chris ...
  • Информация
    Посетители, находящиеся в группе Гости, не могут оставлять комментарии к данной публикации.