вход на сайт

Имя пользователя :
Пароль :

Восстановление пароля Регистрация
(Дискография, 1977-1980) Fandango (R&B, Melodic Hard Rock, Electric Pop Rock) [FLAC (image+.сue), lossless]
Рейтинг:
(голосов: 1)



[img]{THEME}/images/logopost.png[/img]



Дискография
Исполнитель: Fandango
Страна: USA
Жанр: R&B, Melodic Hard Rock, Electric Pop Rock
Формат: FLAC (image+.сue)
Битрейт: lossless
Продолжительность: 02:43:02

Принимали участие ▼
Joe Lynn Turner - lead vocals,guitar
Rick Blakemore - guitar,vocals
Bob Danyls - bass,vocals
Denny La Rue - keyboard,vocals
Lou Mondelli - drums (1978.1979)
Larry Dowson - keyboards (1978-1980)
Santos - percussion (1978-1980)
Jimmy Hall - harmonica on track 4,vocal in track 2 (1979)
Joe Da Lia - piano (1980)
Abe Speller - drums (1980)

Студийные альбомы: ▼
1977 - Fandango (FLAC/image+.cue) ▼

Продолжительность: 00:44:16

Tреклист:
01. Headliner[3:42]
02. Down Down Down[4:44]
03. Jesse And Will[5:04]
04. San Joaquin[4:05]
05. Life Of The Party[4:45]
06. Shadow Boxing[3:04]
07. Helpless Heart[4:10]
08. Devil Rain[6:11]
09. Misery Road[4:18]
10. Goin Down For The Last Time[4:13]
Лог создания рипа ▼TextExact Audio Copy V0.99 prebeta 4 from 23. January 2008

Отчёт EAC об извлечении, выполненном 26. июля 2009, 14:57

Fandango / Fandango

Дисковод: Optiarc DVD RW AD-5200A Adapter: 5 ID: 1

Режим чтения : Достоверность
Использование точного потока : Да
Отключение кэша аудио : Да
Использование указателей C2 : Нет

Коррекция смещения при чтении : 48
Способность читать области Lead-in и Lead-out : Нет
Заполнение пропущенных сэмплов тишиной : Да
Удаление блоков с тишиной в начале и конце : Нет
При вычислениях CRC использовались нулевые сэмплы : Да
Интерфейс : Встроенный Win32-интерфейс для Win NT/2000

Выходной формат : Внутренние WAV-операции
Формат сэмплов : 44.100 Гц; 16 бит; стерео
Смещение при сжатии : 0


TOC извлечённого CD

Трек | Старт | Длительность | Начальный сектор | Конечный сектор
---------------------------------------------------------------------
1 | 0:00.00 | 3:42.29 | 0 | 16678
2 | 3:42.29 | 4:44.12 | 16679 | 37990
3 | 8:26.41 | 5:03.48 | 37991 | 60763
4 | 13:30.14 | 4:05.14 | 60764 | 79152
5 | 17:35.28 | 4:45.29 | 79153 | 100556
6 | 22:20.57 | 3:03.66 | 100557 | 114347
7 | 25:24.48 | 4:09.65 | 114348 | 133087
8 | 29:34.38 | 6:10.67 | 133088 | 160904
9 | 35:45.3
d74ffcb0b92fbaca4aaff9b5cf619b047f4dab5f(Дискография, 1977-1980) Fandango (R&B, Melodic Hard Rock, Electric Pop Rock) [FLAC (image+.сue), lossless] (Дискография, 1977-1980) Fandango (R&B, Melodic Hard Rock, Electric Pop Rock) [FLAC (image+.сue), lossless] " />

Аплоадер: Админ, дата: 17-03-2012, 21:29, торрент скачан: 359 раз

Понравилась раздача? Посмотрите эти:
  • (2000) Lenny Kravitz / Greatest Hits (Rock, Funk) [FLAC (image+.cue), lossl ...
  • (1993) Coverdale & Page / Coverdale & Page (EMI Holland)(Hard Rock) [FLAC ( ...
  • (2002) a-ha / Lifelines (Alternative Rock, Synth-pop ) [FLAC (image + .cue ...
  • (2013) Pinnick Gales Pridgen / Pinnick Gales Pridgen (Hard Rock, Heavy Blue ...
  • (2013) Krokus / Dirty Dynamite (Hard Rock) [FLAC (image+.cue), lossless]
  • (2012) Григорий Лепс / Полный вперёд (Шансон) [FLAC (image+.cue), Lossless ...
  • (2006) DAVID GILMOUR - On An Island (Progressive rock) [lossless, flac/imag ...
  • (2006) Батырхан Шукенов/ Отан Ана (Pop) [FLAC (image+.cue) lossless]
  • (2006) Tokio / puls 200 (Alternative Rock / Pop Rock) [FLAC (image+.cue) lo ...
  • (Дискография) The Doors (Classic Rock) [FLAC(tracks,image+.cue),APE(image+. ...
  • (Дискография 2006 - 2011) Human Zoo (Melodic Hard Rock) [FLAC (image+.cue), ...
  • (2004) Genesis / Platinum Collection (Art Rock) [FLAC (image+.cue), lossles ...
  • (2011) Blues Cousins / KGB Blues (Blues Rock) [FLAC (image+.cue), lossless] ...
  • (2011) АукцЫон / Юла (Rock) [APE (image+.cue), lossless]
  • (Дискография, 2002 - 2005) Hughes Turner Project - HTP (Glenn Hughes, Joe L ...
  • (2012) The Rasmus / The Rasmus (Alternative Rock/Melodic Rock) [FLAC (track ...
  • (1989) Motley Crue / Dr. Feelgood (Hard Rock, Heavy metal, Glam metal) [APE ...
  • ( 2001) Воскресение / Звездная коллекция (Rock) [FLAC (image+.cue) lossless ...
  • (Дискография, 2005-2008) Ёлка (R&B, Reggae, Pop) [APE (image+.cue); FLAC (i ...
  • (1995) Steve Morse Band / Structural Damage (Instrumental Rock/Blues Rock/J ...
  • (2012) Paradise Lost / Tragic Idol (Limited Edition) (Gothic Rock, Metal) [ ...
  • (2011) Paradise Lost / Draconian Times MMXI (Limited Edition) (Gothic Rock, ...
  • (2000) Парк Горького (Gorky Park) / The Best (Glam Metal/Hard Rock) [FLAC ...
  • (2004) Ex-Сектор Газа / Огненный рай (Punk-Rock) [FLAC (image+.cue), lossle ...
  • (2008) Студия 80 / Придуманный Мир (Pop) [FLAC (image+.cue), lossless]
  • Информация
    Посетители, находящиеся в группе Гости, не могут оставлять комментарии к данной публикации.