вход на сайт

Имя пользователя :
Пароль :

Восстановление пароля Регистрация
(Сборник, 1976-1982) Rockets / 6 Альбомов (Electro Rock/Pop Rock/Space Rock/Technical Pop) [FLAC (image+.cue), lossless]
Рейтинг:
(голосов: 1)



[img]{THEME}/images/logopost.png[/img]



Исполнитель: Rockets
Жанр: Electro Rock/Pop Rock/Space Rock/Technical Pop
Тип альбомов:Все студийные
Страна: France
Формат: FLAC (image+.cue)
Битрейт: lossless
Продолжительность: 04:16

1976 - Rockets ▼


Продолжительность: 59:01

Треклист:

01. Apache (4:16)
02. Ballade Sur Mars (2:17)
03. Fils Du Ciel (3:07)
04. Future Women (3:42)
05. Terre Larbour (1:07)
06. Le Сhemin (3:51)
07. Space Rock (8:49)
08. Apesanteur (6:26)
09. Ave Maria (3:51)
10. Last Space Train (3:05)
11. Genese Future (7:33)
12. Dont Be Sad (4:51)
13. Future Women (Single Version) (6:05)
Лог EAC ▼TextExact Audio Copy V1.0 beta 3 from 29. August 2011

EAC extraction logfile from 15. February 2012, 20:23

Rockets / Rockets (4-026-110255 Rockland France)

Used drive : HL-DT-STDVDRAM GSA-T10N Adapter: 1 ID: 0

Read mode : Secure
Utilize accurate stream : Yes
Defeat audio cache : Yes
Make use of C2 pointers : No

Read offset correction : 667
Overread into Lead-In and Lead-Out : No
Fill up missing offset samples with silence : Yes
Delete leading and trailing silent blocks : No
Null samples used in CRC calculations : Yes
Used interface : Native Win32 interface for Win NT & 2000

Used output format : User Defined Encoder
Selected bitrate : 1024 kBit/s
Quality : High
Add ID3 tag : No
Command line compressor : C:Program FilesExact Audio CopyFlacflac.exe
Additional command line options : -8 -V %source% -o %dest%


TOC of the extracted CD

Track | Start | Length | Start sector | End sector
---------------------------------------------------------
1 | 0:00.00 | 4:16.10 | 0 | 19209
2 | 4:16.10 | 2:17.15 | 19210 | 29499
3 | 6:33.25 | 3:07.30 | 29500 | 43554
4 | 9:40.55 | 3:41.40 | 43555 | 60169
5 | 13:22.20 | 1:07.35 | 60170 | 65229
6 | 14:29.55 | 3:51.30 | 65230 | 82584
7 | 18:21.10 | 8:49.10 | 82585 | 122269
8 | 27:10.20 | 6:25.65 | 122270 | 151209
9 | 33:36.10 | 3:50.50 | 151210 | 168509
10 | 37:26.60 | 3:05.15 | 168510 | 182399
11 | 40:32.00 | 7:32.55 | 182400 | 216354
12 | 48:04.55 | 4:51.30 | 216355 |&n
5d1f698ce1097072842285555953006c95034537(Сборник, 1976-1982) Rockets / 6 Альбомов (Electro Rock/Pop Rock/Space Rock/Technical Pop) [FLAC (image+.cue), lossless] (Сборник, 1976-1982) Rockets / 6 Альбомов (Electro Rock/Pop Rock/Space Rock/Technical Pop) [FLAC (image+.cue), lossless] " />

Аплоадер: Админ, дата: 11-03-2012, 19:19, торрент скачан: 359 раз

Понравилась раздача? Посмотрите эти:
  • (2013) Leslie West / Still Climbing (Rock, Hard Rock, Blues Rock) [FLAC (im ...
  • (2013) Linkin Park / Recharged (Electronic Rock / Electro House) [FLAC (ima ...
  • (2013) Paul McCartney / New (Deluxe Edition) (Rock) [FLAC (image,+.cue), lo ...
  • (2013) Linkin Park & Steve Aoki / A Light That Never Comes (Electronic Rock ...
  • (2007) ROCKETS / Rockets. The Silver Years. Box (Limited Edition, 7 CD) (Sp ...
  • (1977) Jethro Tull / Songs from the wood (Rock, Art-Rock) [FLAC (track+ cue ...
  • (2006) Аквариум / Беспечный русский бродяга (Rock) [FLAC (image+.cue) lossl ...
  • (2010)Scorpions/Sting In The Tail [FLAC (tracks+cue), lossless]
  • (2010) ПИKНИК / Театр Абсурда (Art-Rock) [FLAC (tracks+.cue), lossless]
  • (2011) Uriah Heep - Into The Wild (Hard Rock, Progressive Rock)[FLAC (track ...
  • (2010) Ravenna / Debrief (Alt. Rock / Christian Rock / Indie) [FLAC (tracks ...
  • (2012) Uriah Heep / Logical Revelations (Hard Rock) [FLAC (image +.cue), lo ...
  • (2012) Son Of A Bad Man / Heres To The Falling In... (Alt.Rock) [FLAC (trac ...
  • (1976) The Eagles / Hotel California [Japan Remastered] (Country Rock) [FLA ...
  • (2011) Linkin Park / Iridescent (Alternative Rock) [FLAC(image+.cue), lossl ...
  • (2009) Чиж & Co / Лучшее. Золотая коллекция (Rock) [FLAC (image+.cue), loss ...
  • (2011) Ленинград / Хна (Rock) [FLAC (tracks+.cue), lossless]
  • (2012) The Cranberries / Roses (Alternative Rock / Pop-Rock) [FLAC (tracks+ ...
  • (2012) Anneke van Giersbergen / Everything Is Changing (Alternative Rock/Fe ...
  • (2011) Downhere / On The Altar Of Love (Alternative Rock/Christian Rock) [F ...
  • (2012) Fox / 2012 (Melodic Hard Rock) [FLAC (image +.cue), lossless]
  • (2011) Святослав Вакарчук (Океан Эльзы) / Брюссель (Rock/Soft Rock) [FLAC ( ...
  • (2012) Оргия Праведников / Шитрок (Rock/Progressive Rock) [FLAC (tracks+cue ...
  • (2011) Gorillaz - The Singles Collection 2001-2011 (Alternative / Hip-Hop / ...
  • (2012) Сплин / Обман зрения (Rock) [FLAC (image+.cue), lossless]
  • Информация
    Посетители, находящиеся в группе Гости, не могут оставлять комментарии к данной публикации.