вход на сайт

Имя пользователя :
Пароль :

Восстановление пароля Регистрация
(2010) Ravenna / Debrief (Alt. Rock / Christian Rock / Indie) [FLAC (tracks+.cue), lossless]
Рейтинг:
(голосов: 1)



[img]{THEME}/images/logopost.png[/img]



Исполнитель: Ravenna
Альбом: Debrief
Страна: USA
Издатель (лейбл): Unsigned
Тип альбома: EP
Дата релиза: 2010-12-31
Жанр:Alt. Rock, Christian Rock, Indie
Формат: FLAC (tracks+.cue)
Битрейт: lossless
Продолжительность: 00:36:17

Tреклист:
01. A A Promise (4:56)
02. When Good Men Do Nothing (4:21)
03. Uncertain (3:37)
04. Trust Fall (3:55)
05. Ecclesiastes Song (5:23)
06. Flint (8:43)
07. Ecclesiastes Song (Acoustic) (5:20)

Лог создания рипа ▼TextExact Audio Copy V0.99 prebeta 5 from 4. May 2009

EAC extraction logfile from 12. February 2010, 0:13

Ravenna / Debrief EP

Used drive : ATAPI iHES206 2 Adapter: 4 ID: 1

Read mode : Secure
Utilize accurate stream : Yes
Defeat audio cache : Yes
Make use of C2 pointers : No

Read offset correction : 6
Overread into Lead-In and Lead-Out : No
Fill up missing offset samples with silence : Yes
Delete leading and trailing silent blocks : No
Null samples used in CRC calculations : Yes
Used interface : Native Win32 interface for Win NT & 2000
Gap handling : Appended to previous track

Used output format : User Defined Encoder
Selected bitrate : 128 kBit/s
Quality : High
Add ID3 tag : No
Command line compressor : D:Program Files (x86)Exact Audio CopyFlacflac.exe
Additional command line options : -V -8 -T "artist=%a" -T "title=%t" -T "album=%g" -T "date=%y" -T "tracknumber=%n" -T "genre=%m" %s


TOC of the extracted CD

Track | Start | Length | Start sector | End sector
---------------------------------------------------------
1 | 0:00.00 | 4:56.32 | 0 | 22231
2 | 4:56.32 | 4:21.31 | 22232 | 41837
3 | 9:17.63 | 3:37.36 | 41838 | 58148
4 | 12:55.24 | 3:55.26 | 58149 | 75799
5 | 16:50.50 | 5:23.30 | 75800 | 100054
6 | 22:14.05 | 8:43.15 | 100055 | 139294
7 | 30:57.20 | 5:19.66 | 139295 | 163285


Track 1

Filename D:EACrips1 - A Promise.wav

Pre-gap length 0:00:02.00

Peak level 98.2 %
Track quality 100.0 %
Test CRC D772C11D
Copy CRC D772C11D
Track not present in AccurateRip database
Copy OK

Track 2

Filename D:EACrips2 - When Good Men Do Nothing.wav

Pre-gap lengt
f9af0e4526f90433dc676f978a512950af976036(2010) Ravenna / Debrief (Alt. Rock / Christian Rock / Indie) [FLAC (tracks+.cue), lossless] (2010) Ravenna / Debrief (Alt. Rock / Christian Rock / Indie) [FLAC (tracks+.cue), lossless] " />

Аплоадер: Админ, дата: 7-03-2012, 00:16, торрент скачан: 359 раз

Понравилась раздача? Посмотрите эти:
  • (2013) Girls Generation (SNSD) - Galaxy Supernova / Galaxy Supernova (KPop) ...
  • (2010) Вячеслав Бутусов и Ю-Питер / Цветы и Тернии (Rock) [FLAC (tracks + . ...
  • (2010) Zaz / Zaz (Nu jazz, Chanson, Soul) [FLAC (tracks+.cue), lossless]
  • (Дискография, 1994-2011) Cake (Indie Rock) [FLAC (tracks+.cue), losslesss]
  • (2011) Daughtry / Break the Spell (Deluxe Edition) (Alt. Rock / Modern Rock ...
  • (2002) PPK (ППК) / ReLoad. Russian Trance (Trance) [FLAC (tracks+cue), loss ...
  • (2009) Dead By Sunrise / Out Of Ashes (Japanese Edition) (Alternative Rock) ...
  • (2011) B.B. King / Icon (Blues) [FLAC (tracks+.cue), lossless]
  • (2012) Mark Lanegan Band / Blues Funeral (Alternative Rock/Blues Rock) [FLA ...
  • (2012) Son Of A Bad Man / Heres To The Falling In... (Alt.Rock) [FLAC (trac ...
  • (2012) Amy MacDonald / Life In A Beautiful Light (Deluxe Edition) (Acoustic ...
  • (2006) The Rasmus / Shot (Single) (Alternative Rock) [FLAC (tracks+.cue), l ...
  • (2011) Linkin Park / Iridescent (Alternative Rock) [FLAC(image+.cue), lossl ...
  • (2011) Ляпис Трубецкой / Веселые картинки (Rock) [FLAC (tracks+.cue), lossl ...
  • (2011) Scorpions / Comeblack (Hard Rock) [FLAC (tracks+.cue)lossless]
  • (2011) This Will Destroy You / Tunnel Blanket (Post Rock) [FLAC (tracks+.cu ...
  • (2011) Ленинград / Хна (Rock) [FLAC (tracks+.cue), lossless]
  • (2012) Buckethead / Electric Sea (Experimental/Acoustic/Ambient/Rock) [FLAC ...
  • (2012) Les Friction / Les Friction (Alt. Rock/Neo-Classical/Orchestral) [FL ...
  • (2011) Downhere / On The Altar Of Love (Alternative Rock/Christian Rock) [F ...
  • (2011) Florence & The Machine / Ceremonials (Deluxe Edition) (Indie/Alterna ...
  • (2012) Our Lady Peace / Curve (Alternative/Rock) [FLAC (tracks+.cue), lossl ...
  • (2012) KoRn feat. Skrillex / Chaos Lives In Everything (UK Promo) (Nu-metal ...
  • (2012) Nine Lashes / World We View (Alt.Rock/Alt.Metal/Christian) [FLAC (tr ...
  • (2011) Ink Stained Promises / Relations. (Metalcore, Hardcore) [FLAC (track ...
  • Информация
    Посетители, находящиеся в группе Гости, не могут оставлять комментарии к данной публикации.