вход на сайт

Имя пользователя :
Пароль :

Восстановление пароля Регистрация
(2011) 3 Doors Down / Time Of My Life [Deluxe Edition] (Alternative Rock/Post-Grunge) [FLAC (image+.cue), lossless]
Рейтинг:
(голосов: 1)



[img]{THEME}/images/logopost.png[/img]





Альбом: Time Of My Life
Тип альбома: Cтудийный
Год выпуска: 2011
Страна: США
Жанр: Alternative Rock/Post-Grunge
Формат: FLAC (image+.cue)
Битрейт: lossless
Log-файл: Присутствует
Продолжительность: 00:56:22


01. Time Of My Life (3:23)
02. When Youre Young (4:16)
03. Round and Round (3:46)
04. Heaven (3:27)
05. Race For The Sun (2:59)
06. Back To Me (3:43)
07. Every Time You Go (3:48)
08. Whats Left (3:43)
09. On The Run (3:08)
10. She Is Love (3:16)
11. My Way (3:07)
12. Believer (3:01)
13. When Youre Young (Acoustic) (4:16)
14. Every Time You Go (Acoustic) (3:49)
15. The Silence Remains (3:39)
16. Train (Demo) (3:00)

Отчет "EAC" ▼TextExact Audio Copy V0.99 prebeta 4 from 23. January 2008

EAC extraction logfile from 21. July 2011, 17:59

3 Doors Down / Time Of My Life [Deluxe Edition]

Used drive : TOSHIBA DVD-ROM SD-R5002 Adapter: 0 ID: 0

Read mode : Secure
Utilize accurate stream : Yes
Defeat audio cache : Yes
Make use of C2 pointers : No

Read offset correction : 116
Overread into Lead-In and Lead-Out : No
Fill up missing offset samples with silence : Yes
Delete leading and trailing silent blocks : No
Null samples used in CRC calculations : Yes
Used interface : Installed external ASPI interface

Used output format : Monkeys Audio Lossless Encoder
Selected bitrate : High Lossless Compression
Quality : High
Add ID3 tag : Yes
Command line compressor : C:Program FilesMonkeys AudioMAC.exe

TOC of the extracted CD

Track | Start | Length | Start sector | End sector
---------------------------------------------------------
1 | 0:00.00 | 3:23.08 | 0 | 15232
2 | 3:23.08 | 4:16.01 | 15233 | 34433
3 | 7:39.09 | 3:46.09 | 34434 | 51392
4 | 11:25.18 | 3:27.16 | 51393 | 66933
5 | 14:52.34 | 2:59.11 | 66934 | 80369
6 | 17:51.45 | 3:42.38 | 80370 | 97057
7 | 21:34.08 | 3:48.32 | 97058 | 114189
8 | 25:22.40 | 3:42.40 | 114190 | 130879
9 | 29:05.05 | 3:08.18 | 130880 | 144997
10 | 32:13.23 | 3:16.30 | 144998 | 159727
11 | 35:29.53 | 3:07.33 | 159728 | 173785
12 | 38:37.11 | 3:00.74 | 173786 | 187359
13 | 41:38.10 | 4:15.57 | 187360 | 206541
14 |
aa1ac91a83f0ab833b9a3e8f6d63187fefbde940(2011) 3 Doors Down / Time Of My Life [Deluxe Edition] (Alternative Rock/Post-Grunge) [FLAC (image+.cue), lossless] (2011) 3 Doors Down / Time Of My Life [Deluxe Edition] (Alternative Rock/Post-Grunge) [FLAC (image+.cue), lossless] " />

Аплоадер: Админ, дата: 26-02-2012, 13:56, торрент скачан: 359 раз

Понравилась раздача? Посмотрите эти:
  • (2014) Ozzy Osbourne / Dreamer (Hard Rock, Heavy Metal, Power Ballad) [FLAC ...
  • (2013) Paul McCartney / New (Deluxe Edition) (Rock) [FLAC (image,+.cue), lo ...
  • (2013) Bon Jovi / What About Now (Deluxe Edition) (Hard Rock) [FLAC (tracks ...
  • (2011) Foo Fighters / Wasting Light (Deluxe Edition) (Alternative Rock, Pos ...
  • (2007) GORILLAZ / D-Sides [Japan Edition] (Hip-Hop) [FLAC (image+cue), loss ...
  • (2009) ONE REPUBLIC / Waking Up (Pop-Rock/Alternative) [FLAC (tracks+.cue) ...
  • (2010) Ассаи / Лифт (Rap) [FLAC(image+.cue), lossless]
  • (Discography) 3 Doors Down (Alt.Rock | Post-Grunge) [FLAC (tracks+.cue) los ...
  • (2010) YELLO / Yello By Yello. The Anthology (Limited Deluxe Edition 3CD+D ...
  • (2009) Radiohead / Hail To The Thief [Collectors Edition: 2-nd CD] (Alterna ...
  • (2011) Hollywood Undead / American Tragedy (Deluxe Edition) (Alternative/Hi ...
  • (2011) Daughtry / Break the Spell (Deluxe Edition) (Alt. Rock / Modern Rock ...
  • (2012) Uriah Heep / Logical Revelations (Hard Rock) [FLAC (image +.cue), lo ...
  • (2012) Amy MacDonald / Life In A Beautiful Light (Deluxe Edition) (Acoustic ...
  • (2011) Chris Brown / F.A.M.E. (Deluxe Edition) (R&B) [FLAC (tracks+.cue), l ...
  • (1976) The Eagles / Hotel California [Japan Remastered] (Country Rock) [FLA ...
  • (2011) Linkin Park / Iridescent (Alternative Rock) [FLAC(image+.cue), lossl ...
  • (2009) Чиж & Co / Лучшее. Золотая коллекция (Rock) [FLAC (image+.cue), loss ...
  • (2011) Слот / F5 (Alternative Metal) [FLAC (image+.cue)lossless]
  • (2011) Слот / Break The Code (Alternative Metal) [FLAC (image+.cue)lossless ...
  • (2011) Breaking Benjamin / Shallow Bay: The Best of Breaking Benjamin (Alte ...
  • (2012) The Cranberries / Roses (Alternative Rock / Pop-Rock) [FLAC (tracks+ ...
  • (2011) Downhere / On The Altar Of Love (Alternative Rock/Christian Rock) [F ...
  • (2012) Crippled Black Phoenix / (Mankind) The Crafty Ape (Alternative/Indie ...
  • (2011) Gorillaz - The Singles Collection 2001-2011 (Alternative / Hip-Hop / ...
  • Информация
    Посетители, находящиеся в группе Гости, не могут оставлять комментарии к данной публикации.