вход на сайт

Имя пользователя :
Пароль :

Восстановление пароля Регистрация
(Дискография, 1988-2011) Kingdom Come (Hard&Heavy,Glam Metal) [FLAC (image+.сue), lossless]
Рейтинг:
(голосов: 1)



[img]{THEME}/images/logopost.png[/img]



Дискография
Исполнитель: Kingdom Come
Страна: USA, Germany
Жанр: Hard & Heavy, Glam Metal, Blues-Rock
Формат: FLAC (image+.сue)
Битрейт: lossless
Продолжительность: 11:55:54

Об исполнителе:
wiki
offsite

Студийные альбомы: ▼
1988 - Kingdom Come (FLAC/image+.cue) ▼

Продолжительность: 00:47:26

Tреклист:
01. Living Out Of Touch[4:17]
02. Pushin Hard[4:47]
03. What Love Can Be[5:14]
04. 17[5:26]
05. The Shuffle[3:40]
06. Get It On[4:21]
07. Now Forever After[5:36]
08. Hideaway[5:38]
09. Loving You[4:47]
10. Shout It Out[3:38]
Лог создания рипа ▼TextExact Audio Copy V0.99 prebeta 4 from 23. January 2008

EAC extraction logfile from 8. March 2009, 13:00

Kingdom Come / Kingdom Come

Used drive : PLEXTOR DVDR PX-716A Adapter: 0 ID: 0

Read mode : Secure
Utilize accurate stream : Yes
Defeat audio cache : Yes
Make use of C2 pointers : No

Read offset correction : 30
Overread into Lead-In and Lead-Out : Yes
Fill up missing offset samples with silence : Yes
Delete leading and trailing silent blocks : No
Null samples used in CRC calculations : Yes
Used interface : Native Win32 interface for Win NT & 2000

Used output format : User Defined Encoder
Selected bitrate : 128 kBit/s
Quality : High
Add ID3 tag : No
Command line compressor : C:Program FilesFLACflac.exe
Additional command line options : -8 -V -T "ARTIST=%a" -T "TITLE=%t" -T "ALBUM=%g" -T "DATE=%y" -T "TRACKNUMBER=%n" -T "GENRE=%m" -T "COMMENT=EAC FLAC -8" %s


TOC of the extracted CD

Track | Start | Length | Start sector | End sector
---------------------------------------------------------
1 | 0:00.33 | 4:17.20 | 33 | 19327
2 | 4:17.53 | 4:47.25 | 19328 | 40877
3 | 9:05.03 | 5:14.07 | 40878 | 64434
4 | 14:19.10 | 5:26.23 | 64435 | 88907
5 | 19:45.33 | 3:40.37 | 88908 | 105444
6 | 23:25.70 | 4:21.15 | 105445 | 125034
7 | 27:47.10 | 5:36.25 | 125035 | 150259
8 | 33:23.35 | 5:38.10 | 150260 | 175619
9 | 39:01.45 | 4:46.55 | 175620 | 197124
10 | 43:48.25 | 3:37.50 | 197125 | 213449


Range status and errors

Selected
e1232b33c961e860de84d6a64ab2baf452236bdc(Дискография, 1988-2011) Kingdom Come (Hard&Heavy,Glam Metal) [FLAC (image+.сue), lossless] (Дискография, 1988-2011) Kingdom Come (Hard&Heavy,Glam Metal) [FLAC (image+.сue), lossless] " />

Аплоадер: Админ, дата: 18-02-2012, 19:29, торрент скачан: 359 раз

Понравилась раздача? Посмотрите эти:
  • (1996) George Michael / Older (1st Press Japan) (Electronic, Pop/Rock) [FLA ...
  • (2013) Buddy Guy / Rhythm & Blues (2CD) (Blues) [FLAC (image+.cue), Lossles ...
  • (2013) Leslie West / Still Climbing (Rock, Hard Rock, Blues Rock) [FLAC (im ...
  • (2013) Paul McCartney / New (Deluxe Edition) (Rock) [FLAC (image,+.cue), lo ...
  • (2013) Govt Mule / Shout! (2CD) (Blues Rock) [FLAC (image+.cue), Lossless]
  • (2013) Black Veil Brides / Wretched And Divine: The Story Of The Wild Ones ...
  • (2010) Zaz / Zaz (Nu jazz, Chanson, Soul) [FLAC (tracks+.cue), lossless]
  • (2011) The Prodigy / Worlds On Fire (Big Beat, Rave) [FLAC (image+.cue), lo ...
  • (2011) Disturbed / The Lost Children (Alternative Metal) [FLAC (tracks+.cue ...
  • (2011) B.B. King / Icon (Blues) [FLAC (tracks+.cue), lossless]
  • (1998) Roomful of Blues / There Goes The Neighborhood (Jump / Modern Electr ...
  • (2011) Linkin Park / Iridescent (Alternative Rock) [FLAC(image+.cue), lossl ...
  • (2011) Stargazery / Eye On The Sky (Heavy Metal) [FLAC (image+.cue), lossle ...
  • (2011) Rammstein / Mein Land (Neue Deutsche Harte, Industrial, Tanz-Metal) ...
  • (2011) Scorpions / Comeblack (Hard Rock) [FLAC (tracks+.cue)lossless]
  • (2011) Ленинград / Хна (Rock) [FLAC (tracks+.cue), lossless]
  • (2011) SeeS / The enD (Progressive/Math Metal) [FLAC (tracks+.cue), lossles ...
  • (2012) Anneke van Giersbergen / Everything Is Changing (Alternative Rock/Fe ...
  • (2011) Downhere / On The Altar Of Love (Alternative Rock/Christian Rock) [F ...
  • (2011) Volumes / Via (Progressive Metalcore/Math Metal) [FLAC (image+.cue), ...
  • (2012) Soulfly / Enslaved [Deluxe Edition] (Groove Metal/Thrash Metal) [FLA ...
  • (2012) Nine Lashes / World We View (Alt.Rock/Alt.Metal/Christian) [FLAC (tr ...
  • (2012) Game Over / For Humanity (Thrash Metal) [FLAC (image+.cue), lossless ...
  • (2011) Phinehas / Thegodmachine (Metalcore) [FLAC (tracks+.cue), lossless]
  • (2011) Skindred / Union Black (Alternative Metal, Ragga-Metal) [FLAC (track ...
  • Информация
    Посетители, находящиеся в группе Гости, не могут оставлять комментарии к данной публикации.