вход на сайт

Имя пользователя :
Пароль :

Восстановление пароля Регистрация
(1984) Van Halen / 1984 (Japanese 1984 SHM-CD Edition) (Hard & Heavy) [APE (image+.сue), lossless]
Рейтинг:
(голосов: 1)



[img]{THEME}/images/logopost.png[/img]



Исполнитель: Van Halen
Альбом: 1984
Страна: USA
Тип альбома: Студийный
Год выпуска: 1984
Жанр: Hard & Heavy
Формат: APE (image+.сue)
Битрейт: lossless
Продолжительность: 00:33:29

Tреклист:
01. 1984[1:09]
02. Jump[4:04]
03. Panama[3:33]
04. Top Jimmy[3:02]
05. Drop Dead Legs[4:15]
06. Hot For Teacher[4:45]
07. Ill Wait[4:45]
08. Girl Gone Bad[4:36]
09. House Of Pain[3:20]

Лог создания рипа ▼TextExact Audio Copy V0.99 prebeta 5 from 4. May 2009

EAC extraction logfile from 20. June 2011, 12:58

Van Halen / 1984 (Japan Remaster WPCR-13260 SHM-CD)

Used drive : HL-DT-STDVDRAM GSA-H10A Adapter: 3 ID: 0

Read mode : Secure
Utilize accurate stream : Yes
Defeat audio cache : Yes
Make use of C2 pointers : No

Read offset correction : 667
Overread into Lead-In and Lead-Out : No
Fill up missing offset samples with silence : Yes
Delete leading and trailing silent blocks : No
Null samples used in CRC calculations : Yes
Used interface : Native Win32 interface for Win NT & 2000

Used output format : Monkeys Audio Lossless Encoder
Selected bitrate : High Lossless Compression
Quality : High
Add ID3 tag : Yes
Command line compressor : C:Archivos de programaMonkeys AudioMAC.exe


TOC of the extracted CD

Track | Start | Length | Start sector | End sector
---------------------------------------------------------
1 | 0:00.00 | 1:08.53 | 0 | 5152
2 | 1:08.53 | 4:04.30 | 5153 | 23482
3 | 5:13.08 | 3:32.70 | 23483 | 39452
4 | 8:46.03 | 3:01.72 | 39453 | 53099
5 | 11:48.00 | 4:15.25 | 53100 | 72249
6 | 16:03.25 | 4:44.58 | 72250 | 93607
7 | 20:48.08 | 4:45.20 | 93608 | 115002
8 | 25:33.28 | 4:35.40 | 115003 | 135667
9 | 30:08.68 | 3:20.22 | 135668 | 150689


Range status and errors

Selected range

Filename D:MъsicaEACVan Halen1984Van Halen - 1984 (Japan Remaster WPCR-13260 SHM-CD).wav

Peak level 99.0 %
Range quality 100.0 %
Test CRC B8153DD4
Copy CRC B8153DD4
Copy OK

No errors occurred


AccurateRip summary

Track 1 accurately ripped (confidence 9) [B90EE64D]
Track 2
7561c5edaaff6013a94f3f73b31378f80d635e6e(1984) Van Halen / 1984 (Japanese 1984 SHM-CD Edition) (Hard & Heavy) [APE (image+.сue), lossless] (1984) Van Halen / 1984 (Japanese 1984 SHM-CD Edition) (Hard & Heavy) [APE (image+.сue), lossless] " />

Аплоадер: Админ, дата: 18-02-2012, 16:20, торрент скачан: 359 раз

Понравилась раздача? Посмотрите эти:
  • (2013) Мумий Тролль / SOS Матросу - 2013, (Rock) [FLAC (image+.cue), lossle ...
  • (2002) Urker / Уркер / Made In Kazakhstan (Pop, Ethno) [FLAC (image+.cue), ...
  • (1989) Kaoma / Lambada (lambada / latin / ethnic) [FLAC (image+.cue), lossl ...
  • (2010) Ассаи / Лифт (Rap) [FLAC(image+.cue), lossless]
  • (2010) Tarja Turunen / What Lies Beneath (Limited Edition) (Symphonic Metal ...
  • (1968) Ten Years After / Undead (Rock / Blues / Blues Rock) [Flac (tracks+. ...
  • (2011) Mylene Farmer/ Bleu Noir (CDS + CDM) (Pop) [APE (image+.cue) lossles ...
  • (2003) Пикник / Говорит и показывает (Полная история) (Rock) [WavPack (imag ...
  • (Дискография, 1985 - 2009) Sandra (Pop) [APE (image+.cue), FLAC (image+.cue ...
  • (2011, 5CD Box set) Boney M / Original Album Classics (Reggae, Disco, R&B, ...
  • (Дискография, 1988-2011) Kingdom Come (Hard&Heavy,Glam Metal) [FLAC (image+ ...
  • (2012) Axel Rudi Pell / Circle Of The Oath (Limited Edition Digipack) (Melo ...
  • (Сборник, 1971-1984) Demis Roussos / 12 CD (Pop) [FLAC (image+.cue), lossle ...
  • (2012) Moonspell / Alpha Noir - Omega White (Limited Edition) (Gothic, Extr ...
  • (2011 15CD Box Set Digitally Remaster) Rush - Sectors (Rock, Progressive R ...
  • (2011) Linkin Park / Iridescent (Alternative Rock) [FLAC(image+.cue), lossl ...
  • (2011) JORN / Live In Black (Heavy/Progressive Metal ) [FLAC (image+.cue), ...
  • (2011) Rammstein / Mein Land (Neue Deutsche Harte, Industrial, Tanz-Metal) ...
  • (2011) Adriano Celentano / Facciamo Finta Che Sia Vero (POP) [FLAC (image+. ...
  • (2011) Сурганова & Оркестр / Увидимся скоро (Rock) [FLAC (image+.cue), loss ...
  • (2011) Metallica / Beyond Magnetic (Thrash Metal) [FLAC (image+.cue), lossl ...
  • (2012) Adrenaline Mob / Omerta (Heavy Metal/Progressive/Nu-Metal) [FLAC (im ...
  • (2012) Fox / 2012 (Melodic Hard Rock) [FLAC (image +.cue), lossless]
  • (2011) Lou Reed & Metallica / Lulu (Heavy Metal, Hard Rock) [FLAC (image+.c ...
  • (2010) Punish My Heaven / First Punishment (Melodic Death Metal, Metalcore) ...
  • Информация
    Посетители, находящиеся в группе Гости, не могут оставлять комментарии к данной публикации.