вход на сайт

Имя пользователя :
Пароль :

Восстановление пароля Регистрация
(2010) Sully Erna / Avalon (Hard Rock , Experimental) [FLAC (tracks+.cue), lossless]
Рейтинг:
(голосов: 1)



[img]{THEME}/images/logopost.png[/img]



Исполнитель: Sully Erna
Альбом: Avalon
Страна: USA
Тип альбома: Студийный
Год выпуска: 2010
Жанр: Hard Rock ,Experimental
Формат: FLAC (tracks+.cue)
Битрейт: lossless
Продолжительность: 00:54:40

Об исполнителе: Sully Erna - "Я не уверен, что могу отнести альбом к какой-то категории. Я думаю, что в конечном счете, это в какой-то степени рок запись, но не настоящая рок-запись. Она очень эклектична и очень душевна и очень гипнотична и примитивна. Очень интересно будет посмотреть на то, как публика на нее отреагирует. Но все, кому я ее уже ставил, буквально падали ниц от восторга!"

Cостав исполнителей:
Sully Erna - вокал, текты песен
Lisa Guyer - бэк-вокал
Tim Theriault - гитара
Chris Decato - клавишные
Chris Lester - акустическая гитара, бас-гитара
Irina Chirkova - виолончель
Niall Gregory - ударные
David Stefanelli - ударные

Tреклист:
01. Avalon (4:58)
02. 7 Years (8:42)
03. Broken Road (5:08)
04. Sinners Prayer (4:18)
05. My Light (5:29)
06. The Rise (6:45)
07. Until Then... (5:09)
08. The Departed (5:50)
09. Eyes Of A Child (4:39)
10. In Through Time (3:42)


Лог создания рипа ▼TextExact Audio Copy V0.99 prebeta 5 from 4. May 2009

EAC extraction logfile from 14. September 2010, 13:28

Sully Erna / Avalon

Used drive : HL-DT-STDVD+-RW GH30N Adapter: 0 ID: 1

Read mode : Secure
Utilize accurate stream : Yes
Defeat audio cache : Yes
Make use of C2 pointers : No

Read offset correction : 102
Overread into Lead-In and Lead-Out : Yes
Fill up missing offset samples with silence : Yes
Delete leading and trailing silent blocks : No
Null samples used in CRC calculations : Yes
Used interface : Native Win32 interface for Win NT & 2000
Gap handling : Appended to previous track

Used output format : User Defined Encoder
Selected bitrate : 320 kBit/s
Quality : High
Add ID3 tag : No
Command line compressor : C:Program Files (x86)Exact Audio CopyFlacflac.exe
Additional command line options : -V -8 -T "artist=%a" -T "title=%t" -T "album=%g" -T "date=%y" -T "tracknumber=%n" -T "genre=%m" %s


TOC of the extracted CD

Track | Start | Length | Start sector | End sector
---------------------------------------------------------
1 | 0:00.00 | 4:58.17 | 0 | 22366
2 | 4:58.17 | 8:42.50 | 22367 | 61566
3 | 13:40.67 | 5:08.67 | 61567 | 84733
4 | 18:49.59 | 4:18.05 | 84734 | 104088
5 | 23:07.64 | 5:29.10 | 104089 | 128773
6 | 28:36.74 | 6:45.11 | 128774 | 159159
7 | 35:22.10 |&nb
e75fe5e9cd68e476abaac9533742816fb337abb5(2010) Sully Erna / Avalon (Hard Rock , Experimental) [FLAC (tracks+.cue), lossless] (2010) Sully Erna / Avalon (Hard Rock , Experimental) [FLAC (tracks+.cue), lossless] " />

Аплоадер: Админ, дата: 26-01-2012, 03:04, торрент скачан: 359 раз

Понравилась раздача? Посмотрите эти:
  • (2013) Bon Jovi / What About Now (Deluxe Edition) (Hard Rock) [FLAC (tracks ...
  • (2013) Black Veil Brides / Wretched And Divine: The Story Of The Wild Ones ...
  • (2010) Вячеслав Бутусов и Ю-Питер / Цветы и Тернии (Rock) [FLAC (tracks + . ...
  • (2010) Zaz / Zaz (Nu jazz, Chanson, Soul) [FLAC (tracks+.cue), lossless]
  • (2011) Daughtry / Break the Spell (Deluxe Edition) (Alt. Rock / Modern Rock ...
  • (2007, 5 CDs Box set) VA / 100 Hits - Rock (Hard Rock, Classic Rock) [FLAC ...
  • (2011) Виктория - победительница / Victorious (OST) [FLAC (tracks+.cue), lo ...
  • (2010) Ravenna / Debrief (Alt. Rock / Christian Rock / Indie) [FLAC (tracks ...
  • (2011) B.B. King / Icon (Blues) [FLAC (tracks+.cue), lossless]
  • (2012) Son Of A Bad Man / Heres To The Falling In... (Alt.Rock) [FLAC (trac ...
  • (2012) Marconi Union / Different Colours (Post Rock, Downtempo, Ambient) [F ...
  • (1996) The Rasmus / Peep (Finnish Version) (Alternative Rock) [FLAC (tracks ...
  • (2006) The Rasmus / Shot (Single) (Alternative Rock) [FLAC (tracks+.cue), l ...
  • (2011) Ляпис Трубецкой / Веселые картинки (Rock) [FLAC (tracks+.cue), lossl ...
  • (2011) Scorpions / Comeblack (Hard Rock) [FLAC (tracks+.cue)lossless]
  • (2011) Дельфин / Существо (Alternative|Experimental) [FLAC (tracks+.cue), l ...
  • (2011) Ленинград / Хна (Rock) [FLAC (tracks+.cue), lossless]
  • (2012) Buckethead / Electric Sea (Experimental/Acoustic/Ambient/Rock) [FLAC ...
  • (2012) Les Friction / Les Friction (Alt. Rock/Neo-Classical/Orchestral) [FL ...
  • (2011) SeeS / The enD (Progressive/Math Metal) [FLAC (tracks+.cue), lossles ...
  • (2011) Downhere / On The Altar Of Love (Alternative Rock/Christian Rock) [F ...
  • (2012) Our Lady Peace / Curve (Alternative/Rock) [FLAC (tracks+.cue), lossl ...
  • (2011) Terra Tenebrosa / The Tunnels (Atmospheric Sludge Post-Metal/Psyched ...
  • (2012) Nine Lashes / World We View (Alt.Rock/Alt.Metal/Christian) [FLAC (tr ...
  • (2011) Phinehas / Thegodmachine (Metalcore) [FLAC (tracks+.cue), lossless]
  • Информация
    Посетители, находящиеся в группе Гости, не могут оставлять комментарии к данной публикации.