вход на сайт

Имя пользователя :
Пароль :

Восстановление пароля Регистрация
(2009) Dead By Sunrise / Out Of Ashes (Japanese Edition) (Alternative Rock) [FLAC (tracks+.cue), lossless]
Рейтинг:
(голосов: 1)



[img]{THEME}/images/logopost.png[/img]



Исполнитель: Dead By Sunrise
Альбом: Out Of Ashes (Japanese Edition)
Страна: USA
Тип альбома: Студийный
Год выпуска: 2009
Жанр: Alternative Rock
Формат: FLAC (tracks+.cue)
Битрейт: Lossless
Log-файл: Присутствует
Продолжительность: 00:47:19


01. Fire (03:50)
02. Crawl Back In (03:02)
03. Too Late (02:59)
04. Inside Of Me (02:18)
05. Let Down (03:58)
06. Give Me Your Name (04:56)
07. My Suffering (02:39)
08. Condemned (02:32)
09. Into You (03:23)
10. End Of The World (03:56)
11. Walking In Circles (04:43)
12. In The Darkness (05:28)
13. Morning After (Bonus Track) (03:29)

Лог создания рипа ▼TextExact Audio Copy V1.0 beta 3 from 29. August 2011
EAC extraction logfile from 4. January 2012, 11:48
Dead By Sunrise / Out Of Ashes
Used drive : TSSTcorpCDDVDW TS-L633C Adapter: 1 ID: 0
Read mode : Secure
Utilize accurate stream : Yes
Defeat audio cache : Yes
Make use of C2 pointers : No
Read offset correction : 6
Overread into Lead-In and Lead-Out : No
Fill up missing offset samples with silence : Yes
Delete leading and trailing silent blocks : No
Null samples used in CRC calculations : Yes
Used interface : Native Win32 interface for Win NT & 2000
Gap handling : Appended to previous track
Used output format : User Defined Encoder
Selected bitrate : 768 kBit/s
Quality : High
Add ID3 tag : No
Command line compressor : C:Program Files (x86)Exact Audio CopyFLACFLAC.EXE
Additional command line options : -8 -V -T "ARTIST=%artist%" -T "TITLE=%title%" -T "ALBUM=%albumtitle%" -T "DATE=%year%" -T "TRACKNUMBER=%tracknr%" -T "GENRE=%genre%" %source% -o %dest%
TOC of the extracted CD
Track | Start | Length | Start sector | End sector
---------------------------------------------------------
1 | 0:00.00 | 3:50.38 | 0 | 17287
2 | 3:50.38 | 3:02.56 | 17288 | 30993
3 | 6:53.19 | 2:59.58 | 30994 | 44476
4 | 9:53.02 | 2:18.21 | 44477 | 54847
5 | 12:11.23 | 3:58.12 | 54848 | 72709
6 | 16:09.35 | 4:56.07 | 72710 | 94916
7 | 21:05.42 | 2:39.61 | 94917 | 106902
8 | 23:45.28 | 2:32.46 | 106903 | 118348
9 | 26:17.74 | 3:23.67 | 118349 | 133640
10 | 29:41.66 | 3:56.15 | 133641 | 151355
11 | 33:38.06 | 4:43.57 | 151356 | 172637
 
c53e5584beb3e3624a80bf41b2a905e87600b815(2009) Dead By Sunrise / Out Of Ashes (Japanese Edition) (Alternative Rock) [FLAC (tracks+.cue), lossless] (2009) Dead By Sunrise / Out Of Ashes (Japanese Edition) (Alternative Rock) [FLAC (tracks+.cue), lossless] " />

Аплоадер: Админ, дата: 20-01-2012, 20:24, торрент скачан: 359 раз

Понравилась раздача? Посмотрите эти:
  • (2013) Paul McCartney / New (Deluxe Edition) (Rock) [FLAC (image,+.cue), lo ...
  • (2013) Bon Jovi / What About Now (Deluxe Edition) (Hard Rock) [FLAC (tracks ...
  • (2010) Zaz / Zaz (Nu jazz, Chanson, Soul) [FLAC (tracks+.cue), lossless]
  • (2011) Disturbed / The Lost Children (Alternative Metal) [FLAC (tracks+.cue ...
  • (2011) Daughtry / Break the Spell (Deluxe Edition) (Alt. Rock / Modern Rock ...
  • (2011) Linkin Park / LP Underground 11 (Alternative Rock) [FLAC (Image+cue) ...
  • (2012) Mark Lanegan Band / Blues Funeral (Alternative Rock/Blues Rock) [FLA ...
  • (2012) Son Of A Bad Man / Heres To The Falling In... (Alt.Rock) [FLAC (trac ...
  • (2012) Tomandandy / Resident Evil: Retribution (Score, Soundtrack)[FLAC (tr ...
  • (1996) The Rasmus / Peep (Finnish Version) (Alternative Rock) [FLAC (tracks ...
  • (2011) Scorpions / Comeblack (Hard Rock) [FLAC (tracks+.cue)lossless]
  • (2011) Дельфин / Существо (Alternative|Experimental) [FLAC (tracks+.cue), l ...
  • (2011) Ленинград / Хна (Rock) [FLAC (tracks+.cue), lossless]
  • (2012) Buckethead / Electric Sea (Experimental/Acoustic/Ambient/Rock) [FLAC ...
  • (2011) Breaking Benjamin / Shallow Bay: The Best of Breaking Benjamin (Alte ...
  • (2012) Les Friction / Les Friction (Alt. Rock/Neo-Classical/Orchestral) [FL ...
  • (2011) SeeS / The enD (Progressive/Math Metal) [FLAC (tracks+.cue), lossles ...
  • (2012) Anneke van Giersbergen / Everything Is Changing (Alternative Rock/Fe ...
  • (2011) Downhere / On The Altar Of Love (Alternative Rock/Christian Rock) [F ...
  • (2012) Bleeding Through / The Great Fire (Symphonic Metalcore/Hardcore) [FL ...
  • (2012) Our Lady Peace / Curve (Alternative/Rock) [FLAC (tracks+.cue), lossl ...
  • (2011) The Browning / Burn This World (Deathcore/Electronic) [FLAC (tracks+ ...
  • (2012) Nine Lashes / World We View (Alt.Rock/Alt.Metal/Christian) [FLAC (tr ...
  • (2011) Phinehas / Thegodmachine (Metalcore) [FLAC (tracks+.cue), lossless]
  • (2011) Skindred / Union Black (Alternative Metal, Ragga-Metal) [FLAC (track ...
  • Информация
    Посетители, находящиеся в группе Гости, не могут оставлять комментарии к данной публикации.