вход на сайт

Имя пользователя :
Пароль :

Восстановление пароля Регистрация
(2011) Linkin Park / LP Underground 11 (Alternative Rock) [FLAC (Image+cue), lossless]
Рейтинг:
(голосов: 1)



[img]{THEME}/images/logopost.png[/img]



Исполнитель: Linkin Park
Альбом: LP Underground 11
Страна: USA
Тип альбома: EP
Год выпуска: 2011
Жанр: Alternative Rock
Формат: FLAC (tracks)
Битрейт: Lossless
Log-файл: Присутствует
Продолжительность: 00:34:17


01. YO (MTM Demo) (02:44)
02. Slip (1998 Unreleased Hybrid Theory Demo) (03:30)
03. Soundtrack (Meteora Demo) (03:15)
04. In The End (Demo) (03:52)
05. Program (Meteora Demo) (03:31)
06. Bang Three (What Ive Done Original Demo) (03:29)
07. Robot Boy (Test Mix, Optional Vocal Take) (04:31)
08. Broken Foot (Meteora Demo) (02:43)
09. Esaul (A Place For My Head Demo) (03:09)
10. Blue (1998 Unreleased Hybrid Theory Demo) (03:28)

Лог создания рипа ▼TextExact Audio Copy V1.0 beta 3 from 29. August 2011
EAC extraction logfile from 21. December 2011, 15:14
Linkin Park / LP Underground 11 (EP)
Used drive : SAMSUNG DVDWBD SH-B083L Adapter: 2 ID: 0
Read mode : Secure
Utilize accurate stream : Yes
Defeat audio cache : Yes
Make use of C2 pointers : No
Read offset correction : 6
Overread into Lead-In and Lead-Out : No
Fill up missing offset samples with silence : Yes
Delete leading and trailing silent blocks : No
Null samples used in CRC calculations : Yes
Used interface : Installed external ASPI interface
Gap handling : Appended to previous track
Used output format : User Defined Encoder
Selected bitrate : 1024 kBit/s
Quality : High
Add ID3 tag : No
Command line compressor : C:Program Files (x86)Exact Audio CopyFlacflac.exe
Additional command line options : -8 -V -T "ARTIST=%artist%" -T "TITLE=%title%" -T "ALBUM=%albumtitle%" -T "DATE=%year%" -T "TRACKNUMBER=%tracknr%" -T "GENRE=%genre%" -T "PERFORMER=%albuminterpret%" -T "COMPOSER=%composer%" %haslyrics%--tag-from-file=LYRICS="%lyricsfile%"%haslyrics% -T "ALBUMARTIST=%albumartist%" -T "DISCNUMBER=%cdnumber%" -T "TOTALDISCS=%totalcds%" -T "TOTALTRACKS=%numtracks%" -T "COMMENT=%comment%" %source% -o %dest%
TOC of the extracted CD
Track | Start | Length | Start sector | End sector
---------------------------------------------------------
1 | 0:00.00 | 2:44.13 | 0 | 12312
2 | 2:44.13 | 3:30.02 | 12313 | 28064
3 | 6:14.15 | 3:15.65 | 28065 | 42754
4 | 9:30.05 | 3:52.47 | 42755 | 60201
5 | 13:22.52 | 3:31.53 | 60202 | 76079
6 | 16:54.30 | 3:29.38 | 76080 | 91792
7 | 20:23.68 | 4:31.41 | 91793 | 112158
8 | 24:55.34 | 2:43.24 | 112159 |&n
c13bef9ad736bb20152164d7fab8d05b8b577711(2011) Linkin Park / LP Underground 11 (Alternative Rock) [FLAC (Image+cue), lossless] (2011) Linkin Park / LP Underground 11 (Alternative Rock) [FLAC (Image+cue), lossless] " />

Аплоадер: Админ, дата: 18-01-2012, 00:49, торрент скачан: 359 раз

Понравилась раздача? Посмотрите эти:
  • (2013) Linkin Park / Underground XIII (Alternative Rock) [FLAC (tracks+.cue ...
  • (2013) Buddy Guy / Rhythm & Blues (2CD) (Blues) [FLAC (image+.cue), Lossles ...
  • (2013) Leslie West / Still Climbing (Rock, Hard Rock, Blues Rock) [FLAC (im ...
  • (2013) Paul McCartney / New (Deluxe Edition) (Rock) [FLAC (image,+.cue), lo ...
  • (2013) Govt Mule / Shout! (2CD) (Blues Rock) [FLAC (image+.cue), Lossless]
  • (2013) Prodigy & The Alchemist / Albert Einstein (Underground Hip-Hop) [FLA ...
  • (2013) Fall Out Boy / Save Rock and Roll (Pop-Punk) [ALAC (tracks), lossles ...
  • (2011) Disturbed / The Lost Children (Alternative Metal) [FLAC (tracks+.cue ...
  • (2007, 5 CDs Box set) VA / 100 Hits - Rock (Hard Rock, Classic Rock) [FLAC ...
  • (2012) Katie Melua / Secret Symphony (Jazz Pop, Vocal Jazz) [FLAC (tracks+. ...
  • (2012) Mark Lanegan Band / Blues Funeral (Alternative Rock/Blues Rock) [FLA ...
  • (2012) Marconi Union / Different Colours (Post Rock, Downtempo, Ambient) [F ...
  • (2008, Сборник) VA / Relax Piano - Yesterday - Trai Tim Mua Thu - Vol.7 (Ne ...
  • (2012) Tomandandy / Resident Evil: Retribution (Score, Soundtrack)[FLAC (tr ...
  • (1996) The Rasmus / Peep (Finnish Version) (Alternative Rock) [FLAC (tracks ...
  • (2012) Usher / Looking 4 Myself (Deluxe Version) (R&B, Soul) [FLAC (tracks+ ...
  • (2011) Mistabishi / Trip (Drum & Bass, Breakbeat) [FLAC (tracks+.cue), loss ...
  • (2011) Linkin Park / Iridescent (Alternative Rock) [FLAC(image+.cue), lossl ...
  • (2012) Buckethead / Electric Sea (Experimental/Acoustic/Ambient/Rock) [FLAC ...
  • (2012) Les Friction / Les Friction (Alt. Rock/Neo-Classical/Orchestral) [FL ...
  • (2011) SeeS / The enD (Progressive/Math Metal) [FLAC (tracks+.cue), lossles ...
  • (2012) Our Lady Peace / Curve (Alternative/Rock) [FLAC (tracks+.cue), lossl ...
  • (2011) Terra Tenebrosa / The Tunnels (Atmospheric Sludge Post-Metal/Psyched ...
  • (2012) Nine Lashes / World We View (Alt.Rock/Alt.Metal/Christian) [FLAC (tr ...
  • (2012) For Today / Immortal (Metalcore, Hardcore, Christian) [FLAC (tracks+ ...
  • Информация
    Посетители, находящиеся в группе Гости, не могут оставлять комментарии к данной публикации.