вход на сайт

Имя пользователя :
Пароль :

Восстановление пароля Регистрация
(2011) Last Autumns Dream / Nine Lives (Hard Rock) [FLAC(image+.cue), lossless]
Рейтинг:
(голосов: 1)



[img]{THEME}/images/logopost.png[/img]




Исполнитель:Last Autumns Dream
Страна: Sweden, German
Альбом:Nine Lives
Издатель (Лейбл) : Japan (Marquee Avalon, 4527516012007)
Тип альбома:Студийный
Год выпуска:2011
Жанр:Hard Rock
Формат: FLAC(image+.cue)
Битрейт: lossless
Log-файл: Присутствует
Продолжительность: 00:51:09
Наличие сканов в содержимом раздачи: да (JPG, 600Dpi, 90.6 MB)

Об издании: Nine Lives– девятый студийный альбом шведской группы «Last Autumns Dream», выпущенного 11 декабря 2011 года в Японии. Группа «Last Autumns Dream» была создана в 2002 году шведским вокалистом и клавишником Mikael Erlandsson и немецким гитаристом Andy Malecek.
Personnel:
- Mikael Erlandsson - lead vocals and keyboards
- Andy Malecek - guitar
- Nalley Pahlsson − bass
- Jamie Borger − drums


Wikipedia | Myspace | Facebook


Tреклист:
01. In A Perfect World - 4:11
02. Nine Lives - 5:05
03. In This Just Another Heartache - 4:22
04. Merry-Go-Round - 3:48
05. Golden Cage - 4:40
06. All I Can Think Of - 4:14
07. Megalomania - 4:10
08. The Last To Know - 3:57
09. Angel Eyes - 4:00
10. We Never Said Goodbye - 4:12
11. Waited A Long Time (bonus track) - 3:37
12. Dont Let Love Fade Away - 4:55

Отчет EAC ▼ Text
Exact Audio Copy V1.0 beta 3 from 29. August 2011

EAC extraction logfile from 13. January 2012, 19:35

Last Autumns Dream / Nine Lives

Used drive : SlimtypeDVD A DS8A5SH Adapter: 0 ID: 1

Read mode : Secure
Utilize accurate stream : Yes
Defeat audio cache : Yes
Make use of C2 pointers : No

Read offset correction : 6
Overread into Lead-In and Lead-Out : No
Fill up missing offset samples with silence : Yes
Delete leading and trailing silent blocks : No
Null samples used in CRC calculations : Yes
Used interface : Native Win32 interface for Win NT & 2000

Used output format : User Defined Encoder
Selected bitrate : 320 kBit/s
Quality : High
Add ID3 tag : No
Command line compressor : C:Program Files (x86)Exact Audio CopyFlacflac.exe
Additional command line options : -V -8 -T "Date=%year%" -T "Genre=%genre%" %source%


TOC of the extracted CD

Track | Start | Length | Start sector | End sector
---------------------------------------------------------
1 | 0:00.00 | 4:10.72 | 0 | 18821
2 | 4:10.72 | 5:04.48 | 18822 | 41669
3 | 9:15.45 | 4:21.52 | 41670 | 61296
4 | 13:37.22 | 3:47.47 | 61297 | 78368
5 | 17:24.69 | 4:39.48 | 78369 | 99341
6 | 22:04.42 | 4:13.66 | 99342 | 118382
7 | 26:18.33 | 4:09.63 | 118383 &nb
a1ad8eab844407c25da91b06c3050898749aba4c(2011) Last Autumns Dream / Nine Lives (Hard Rock) [FLAC(image+.cue), lossless] (2011) Last Autumns Dream / Nine Lives (Hard Rock) [FLAC(image+.cue), lossless] " />

Аплоадер: Админ, дата: 17-01-2012, 23:52, торрент скачан: 359 раз

Понравилась раздача? Посмотрите эти:
  • (1996) George Michael / Older (1st Press Japan) (Electronic, Pop/Rock) [FLA ...
  • (1996) Константин Никольский / Один взгляд назад (Rock ) [APE (image + .cu ...
  • (2013) Buddy Guy / Rhythm & Blues (2CD) (Blues) [FLAC (image+.cue), Lossles ...
  • (2013, 3CD Box Set) The Who / Tommy (Super Deluxe Box Set, 3CD+Blu-ray) (Cl ...
  • (2013) Innes Sibun / Lost In The Wilderness (Blues Rock, Rock) [FLAC (image ...
  • (2013) The Hamburg Blues Band / Friends For A LIVEtime (Blues Rock, Rock) [ ...
  • (2013) Leslie West / Still Climbing (Rock, Hard Rock, Blues Rock) [FLAC (im ...
  • (2013) Paul McCartney / New (Deluxe Edition) (Rock) [FLAC (image,+.cue), lo ...
  • (2013) Elton John / The Diving Board (Rock, Pop Rock) [FLAC (image+.cue), L ...
  • (2013) Deep Purple / Perfect Stranger Live (2CD+DVD) (Hard Rock) [FLAC (ima ...
  • (2013) Snakecharmer / Snakecharmer (Japanese Edition) (Melodic Hard Rock) [ ...
  • (2013) Bon Jovi / What About Now (Deluxe Edition) (Hard Rock) [FLAC (tracks ...
  • (2011) Uriah Heep - Into The Wild (Hard Rock, Progressive Rock)[FLAC (track ...
  • (Дискография, 1988-2011) Kingdom Come (Hard&Heavy,Glam Metal) [FLAC (image+ ...
  • (2012) Uriah Heep / Logical Revelations (Hard Rock) [FLAC (image +.cue), lo ...
  • (2012) Linkin Park / Living Things (Alternative Rock, Electronic Rock, Rap ...
  • (2011) Linkin Park / Iridescent (Alternative Rock) [FLAC(image+.cue), lossl ...
  • (2011) Stargazery / Eye On The Sky (Heavy Metal) [FLAC (image+.cue), lossle ...
  • (2011) Scorpions / Comeblack (Hard Rock) [FLAC (tracks+.cue)lossless]
  • (2011) Ленинград / Хна (Rock) [FLAC (tracks+.cue), lossless]
  • (2012) Anneke van Giersbergen / Everything Is Changing (Alternative Rock/Fe ...
  • (2011) Downhere / On The Altar Of Love (Alternative Rock/Christian Rock) [F ...
  • (2011) Volumes / Via (Progressive Metalcore/Math Metal) [FLAC (image+.cue), ...
  • (2012) Fox / 2012 (Melodic Hard Rock) [FLAC (image +.cue), lossless]
  • (2012) KoRn feat. Skrillex / Chaos Lives In Everything (UK Promo) (Nu-metal ...
  • Информация
    Посетители, находящиеся в группе Гости, не могут оставлять комментарии к данной публикации.