вход на сайт

Имя пользователя :
Пароль :

Восстановление пароля Регистрация
(2011) Foster the People / Torches [Best Buy Exclusive Edition] (Indie / Electronic) [FLAC (tracks+.cue)lossless]
Рейтинг:
(голосов: 1)



[img]{THEME}/images/logopost.png[/img]





Альбом: Torches
Тип альбома: Студийный [Best Buy Exclusive Edition]
Год выпуска: 2011
Страна: USA
Жанр: Indie / Electronic
Формат: FLAC (tracks+.cue)
Битрейт: lossless
Log-файл: Присутствует
Продолжительность: 00:45:36


01. Helena Beat (04:35)
02. Pumped Up Kicks (03:59)
03. Call It What You Want (04:00)
04. Dont Stop (Color On the Walls) (02:56)
05. Waste (03:25)
06. I Would Do Anything for You (03:35)
07. Houdini (03:23)
08. Life On the Nickel (03:36)
09. Miss You (03:36)
10. Warrant (05:22)
Best Buy Exclusive Bonus Tracks
11. Love (03:40)
12. Chin Music for the Unsuspecting Hero (03:25)

EAC ▼TextExact Audio Copy V1.0 beta 1 from 15. November 2010

EAC extraction logfile from 23. May 2011, 15:24

Foster the People / Torches [Best Buy Exclusive]

Used drive : TSSTcorpCD/DVDW TS-H652L Adapter: 5 ID: 0

Read mode : Secure
Utilize accurate stream : Yes
Defeat audio cache : Yes
Make use of C2 pointers : No

Read offset correction : 6
Overread into Lead-In and Lead-Out : No
Fill up missing offset samples with silence : Yes
Delete leading and trailing silent blocks : No
Null samples used in CRC calculations : Yes
Used interface : Native Win32 interface for Win NT & 2000
Gap handling : Appended to previous track

Used output format : User Defined Encoder
Selected bitrate : 128 kBit/s
Quality : High
Add ID3 tag : No
Command line compressor : C:Program FilesExact Audio CopyFlacflac.exe
Additional command line options : -V -8 -T "artist=%a" -T "title=%t" -T "album=%g" -T "date=%y" -T "tracknumber=%n" -T "genre=%m" %s


TOC of the extracted CD

Track | Start | Length | Start sector | End sector
---------------------------------------------------------
1 | 0:00.00 | 4:35.40 | 0 | 20664
2 | 4:35.40 | 3:59.63 | 20665 | 38652
3 | 8:35.28 | 4:00.56 | 38653 | 56708
4 | 12:36.09 | 2:56.13 | 56709 | 69921
5 | 15:32.22 | 3:25.37 | 69922 | 85333
6 | 18:57.59 | 3:35.24 | 85334 | 101482
7 | 22:33.08 | 3:23.38 | 101483 | 116745
8 | 25:56.46 | 3:36.27 | 116746 | 132972
9 | 29:32.73 | 3:36.00 | 132973 | 149172
10 | 33:08.73 | 5:22.11 | 149173 | 173333
c7cd591b61e1da3c7f41284d5a4b37aa332657ac(2011) Foster the People / Torches [Best Buy Exclusive Edition] (Indie / Electronic) [FLAC (tracks+.cue)lossless] (2011) Foster the People / Torches [Best Buy Exclusive Edition] (Indie / Electronic) [FLAC (tracks+.cue)lossless] " />

Аплоадер: Админ, дата: 18-12-2011, 01:26, торрент скачан: 359 раз

Понравилась раздача? Посмотрите эти:
  • (2013) Jimi Hendrix / People, Hell and Angels (Psychedelic Rock, Blues Rock ...
  • (2010) Вячеслав Бутусов и Ю-Питер / Цветы и Тернии (Rock) [FLAC (tracks + . ...
  • (2010) Zaz / Zaz (Nu jazz, Chanson, Soul) [FLAC (tracks+.cue), lossless]
  • (2011) Adele / 21 (Jazz, Lounge, Easy Listening) [FLAC (tracks + .cue), los ...
  • (Дискография, 1994-2011) Cake (Indie Rock) [FLAC (tracks+.cue), losslesss]
  • (2011) Daughtry / Break the Spell (Deluxe Edition) (Alt. Rock / Modern Rock ...
  • (2009) Dead By Sunrise / Out Of Ashes (Japanese Edition) (Alternative Rock) ...
  • (2011) Виктория - победительница / Victorious (OST) [FLAC (tracks+.cue), lo ...
  • (2010) Ravenna / Debrief (Alt. Rock / Christian Rock / Indie) [FLAC (tracks ...
  • (2011) B.B. King / Icon (Blues) [FLAC (tracks+.cue), lossless]
  • (2012) Amy MacDonald / Life In A Beautiful Light (Deluxe Edition) (Acoustic ...
  • (2000) Bomfunk MCs / In Stereo (Special 2CD Edition) (Electro, Hip-Hop, Fun ...
  • (2011) Chris Brown / F.A.M.E. (Deluxe Edition) (R&B) [FLAC (tracks+.cue), l ...
  • (2011) Ляпис Трубецкой / Веселые картинки (Rock) [FLAC (tracks+.cue), lossl ...
  • (2011) Gandharva / Lord of the Universe (New Age, Classical, Erhu) [FLAC (t ...
  • (2011) Scorpions / Comeblack (Hard Rock) [FLAC (tracks+.cue)lossless]
  • (2011) Revocation / Chaos of Forms (Death Metal/Thrash) [FLAC (tracks+.cue) ...
  • (2011) Дельфин / Существо (Alternative|Experimental) [FLAC (tracks+.cue), l ...
  • (2011) Ленинград / Хна (Rock) [FLAC (tracks+.cue), lossless]
  • (2012) Les Friction / Les Friction (Alt. Rock/Neo-Classical/Orchestral) [FL ...
  • (2011) SeeS / The enD (Progressive/Math Metal) [FLAC (tracks+.cue), lossles ...
  • (2011) Downhere / On The Altar Of Love (Alternative Rock/Christian Rock) [F ...
  • (2011) The Browning / Burn This World (Deathcore/Electronic) [FLAC (tracks+ ...
  • (2011) Phinehas / Thegodmachine (Metalcore) [FLAC (tracks+.cue), lossless]
  • (2011) Skindred / Union Black (Alternative Metal, Ragga-Metal) [FLAC (track ...
  • Информация
    Посетители, находящиеся в группе Гости, не могут оставлять комментарии к данной публикации.