вход на сайт

Имя пользователя :
Пароль :

Восстановление пароля Регистрация
(2011) Daughtry / Break the Spell (Deluxe Edition) (Alt. Rock / Modern Rock) [FLAC (tracks+.cue)lossless]
Рейтинг:
(голосов: 1)



[img]{THEME}/images/logopost.png[/img]





Альбом: Break The Spell
Тип альбома: Студийный [Deluxe Edition]
Год выпуска: 2011
Страна: USA
Жанр: Alt. Rock / Modern Rock
Формат: FLAC (tracks+.cue)
Битрейт: lossless
Лог-файл: Присутствует
Продолжительность: 00:58:17


01. Renegade (03:35)
02. Crawling Back to You (03:45)
03. Outta My Head (03:31)
04. Start of Something Good (04:24)
05. Crazy (03:24)
06. Break the Spell (03:32)
07. Were Not Gonna Fall (03:19)
08. Gone Too Soon (03:36)
09. Losing My Mind (03:48)
10. Rescue Me (03:23)
11. Louder Than Ever (03:37)
12. Spaceship (03:51)
Deluxe Edition
13. Whos They (03:11)
14. Maybe Were Already Gone (04:21)
15. Everything But Me (04:28)
16. Lullaby (02:25)EAC ▼TextExact Audio Copy V1.0 beta 3 from 29. August 2011

EAC extraction logfile from 21. November 2011, 10:54

Daughtry / Break the Spell [Deluxe Edition]

Used drive : PLEXTOR CD-R PREMIUM Adapter: 0 ID: 1

Read mode : Secure
Utilize accurate stream : Yes
Defeat audio cache : Yes
Make use of C2 pointers : No

Read offset correction : 30
Overread into Lead-In and Lead-Out : Yes
Fill up missing offset samples with silence : Yes
Delete leading and trailing silent blocks : No
Null samples used in CRC calculations : Yes
Used interface : Native Win32 interface for Win NT & 2000
Gap handling : Appended to previous track

Used output format : User Defined Encoder
Selected bitrate : 128 kBit/s
Quality : High
Add ID3 tag : No
Command line compressor : C:Program FilesFLAC 1.2.1bflac.exe
Additional command line options : -8 -V -T "ARTIST=%artist%" -T "TITLE=%title%" -T "ALBUM=%albumtitle%" -T "DATE=%year%" -T "TRACKNUMBER=%tracknr1%" -T "TOTALTRACKS=%numtracks%" -T "GENRE=%genre%" -T "ALBUM ARTIST=%albumartist%" -T "ALBUMARTIST=%albumartist%" -T "DISCNUMBER=%cdnumber%" -T "TOTALDISCS=%totalcds%" %source%


TOC of the extracted CD

Track | Start | Length | Start sector | End sector
---------------------------------------------------------
1 | 0:00.00 | 3:35.56 | 0 | 16180
2 | 3:35.56 | 3:45.30 | 16181 | 33085
3 | 7:21.11 | 3:31.31 | 33086 | 48941
4 | 10:52.42 | 4:24.64 | 48942 | 68805
5 | 15:17.31 | 3:24.66 | 68806 | 84171
6 | 18:42.22 | 3:32.00 | 84172 | 100071
7 | 22:14.22 | 3:19.21 | 100072 | 115017
8 | 25:33.43 | 3:36.09 | 115018
ebf3e4433638fe3c10666c455ad137cd38ed57a5(2011) Daughtry / Break the Spell (Deluxe Edition) (Alt. Rock / Modern Rock) [FLAC (tracks+.cue)lossless] (2011) Daughtry / Break the Spell (Deluxe Edition) (Alt. Rock / Modern Rock) [FLAC (tracks+.cue)lossless] " />

Аплоадер: Админ, дата: 27-11-2011, 14:27, торрент скачан: 359 раз

Понравилась раздача? Посмотрите эти:
  • (2013) Paul McCartney / New (Deluxe Edition) (Rock) [FLAC (image,+.cue), lo ...
  • (2013) Fall Out Boy / Save Rock and Roll (Pop-Punk) [ALAC (tracks), lossles ...
  • (2013) Hans Zimmer / Человек из стали / Man Of Steel [Deluxe Edition] (2 CD ...
  • (2013) A$AP Rocky | Long. Live. ASAP (Deluxe Edition) (Rap|Hip-Hop) [FLAC ( ...
  • (2013) Bon Jovi / What About Now (Deluxe Edition) (Hard Rock) [FLAC (tracks ...
  • (2011) Daughtry / Break The Spell [Deluxe Edition] (Alt. Rock / Modern Rock ...
  • (2011) Disturbed / The Lost Children (Alternative Metal) [FLAC (tracks+.cue ...
  • (2007, 5 CDs Box set) VA / 100 Hits - Rock (Hard Rock, Classic Rock) [FLAC ...
  • (2012) Mark Lanegan Band / Blues Funeral (Alternative Rock/Blues Rock) [FLA ...
  • (2012) Amy MacDonald / Life In A Beautiful Light (Deluxe Edition) (Acoustic ...
  • (2012) Marconi Union / Different Colours (Post Rock, Downtempo, Ambient) [F ...
  • (2012) Tomandandy / Resident Evil: Retribution (Score, Soundtrack)[FLAC (tr ...
  • (2012) Ke$ha (Kesha) - Warrior (Deluxe Edition) (Pop, Dance) [FLAC (tracks ...
  • (1996) The Rasmus / Peep (Finnish Version) (Alternative Rock) [FLAC (tracks ...
  • (2011) Chris Brown / F.A.M.E. (Deluxe Edition) (R&B) [FLAC (tracks+.cue), l ...
  • (2012) Usher / Looking 4 Myself (Deluxe Version) (R&B, Soul) [FLAC (tracks+ ...
  • (2011) Scorpions / Comeblack (Hard Rock) [FLAC (tracks+.cue)lossless]
  • (2011) Ленинград / Хна (Rock) [FLAC (tracks+.cue), lossless]
  • (2012) Buckethead / Electric Sea (Experimental/Acoustic/Ambient/Rock) [FLAC ...
  • (2012) Les Friction / Les Friction (Alt. Rock/Neo-Classical/Orchestral) [FL ...
  • (2011) SeeS / The enD (Progressive/Math Metal) [FLAC (tracks+.cue), lossles ...
  • (2012) Our Lady Peace / Curve (Alternative/Rock) [FLAC (tracks+.cue), lossl ...
  • (2012) Garbage / Not Your Kind of People (Deluxe Edition) (Alternative Ro ...
  • (2012) Nine Lashes / World We View (Alt.Rock/Alt.Metal/Christian) [FLAC (tr ...
  • (2012) For Today / Immortal (Metalcore, Hardcore, Christian) [FLAC (tracks+ ...
  • Информация
    Посетители, находящиеся в группе Гости, не могут оставлять комментарии к данной публикации.