вход на сайт

Имя пользователя :
Пароль :

Восстановление пароля Регистрация
(Дискография, 1994-2011) Cake (Indie Rock) [FLAC (tracks+.cue), losslesss]
Рейтинг:
(голосов: 1)



[img]{THEME}/images/logopost.png[/img]



Дискография
Исполнитель: Cake
Страна: USA (Sacramento, California)
Жанр: Indie Rock
Формат: FLAC (tracks+.cue)
Битрейт: lossless
Продолжительность: 04:11:40

Студийные:▼
1994 - "Motorcade of Generosity"▼

Издатель (лейбл): Upbeat
Продолжительность: 43:48

Tреклист:
01. Comanche - 2:09
02. Ruby Sees All - 3:00
03. Up So Close - 3:14
04. Pentagram - 2:20
05. Jolene - 5:19
06. Haze of Love - 3:08
07. You Part the Waters - 2:50
08. Is This Love? - 3:20
09. Jesus Wrote a Blank Check - 3:10
10. RocknRoll Lifestyle - 4:14
11. I Bombed Korea - 2:19
12. Mr. Mastodon Farm - 5:28
13. Aint No Good - 2:43

Лог создания рипа ▼TextExact Audio Copy V0.99 prebeta 5 from 4. May 2009

EAC extraction logfile from 12. May 2011, 16:21

Cake / Motorcade of Generosity

Used drive : PIONEER DVD-RW DVR-118L Adapter: 2 ID: 0

Read mode : Secure
Utilize accurate stream : Yes
Defeat audio cache : Yes
Make use of C2 pointers : No

Read offset correction : 6
Overread into Lead-In and Lead-Out : No
Fill up missing offset samples with silence : Yes
Delete leading and trailing silent blocks : No
Null samples used in CRC calculations : Yes
Used interface : Native Win32 interface for Win NT & 2000
Gap handling : Appended to previous track

Used output format : User Defined Encoder
Selected bitrate : 128 kBit/s
Quality : High
Add ID3 tag : No
Command line compressor : C:Program Files (x86)Exact Audio CopyFlacflac.exe
Additional command line options : -8 -V -T "ARTIST=%a" -T "TITLE=%t" -T "ALBUM=%g"
-T "DATE=%y" -T "TRACKNUMBER=%n" -T "GENRE=%m" -T "COMMENT=EAC FLAC -8" %s

TOC of the extracted CD

Track | Start | Length | Start sector | End sector
---------------------------------------------------------
1 | 0:00.00 | 2:09.36 | 0 | 9710
2 | 2:09.36 | 3:00.22 | 9711 | 23232
3 | 5:09.58 | 3:13.56 | 23233 | 37763
4 | 8:23.39 | 2:19.55 | 37764 | 48243
5 | 10:43.19 | 5:19.15 | 48244 | 72183
6 | 16:02.34 | 3:07.68 | 72184 | 86276
7 | 19:10.27 | 2:50.03 | 86277 | 99029
8 | 22:00.30 | 3:19.43 | 99030 | 113997
9 | 25:19.73 | 3:10.26 | 113998 | 128273
10 | 28:30.24 | 4:14.05 | 128274 | 147328
&nb
494a46a9a898c419840acc0018b0bfe8aae4a352(Дискография, 1994-2011) Cake (Indie Rock) [FLAC (tracks+.cue), losslesss] (Дискография, 1994-2011) Cake (Indie Rock) [FLAC (tracks+.cue), losslesss] " />

Аплоадер: Админ, дата: 13-10-2011, 19:27, торрент скачан: 359 раз

Понравилась раздача? Посмотрите эти:
  • (2010) Zaz / Zaz (Nu jazz, Chanson, Soul) [FLAC (tracks+.cue), lossless]
  • (2011) Adele / 21 (Jazz, Lounge, Easy Listening) [FLAC (tracks + .cue), los ...
  • (2011) Daughtry / Break the Spell (Deluxe Edition) (Alt. Rock / Modern Rock ...
  • (2011) Foster the People / Torches [Best Buy Exclusive Edition] (Indie / El ...
  • (2011) Виктория - победительница / Victorious (OST) [FLAC (tracks+.cue), lo ...
  • (2010) Ravenna / Debrief (Alt. Rock / Christian Rock / Indie) [FLAC (tracks ...
  • (2011) B.B. King / Icon (Blues) [FLAC (tracks+.cue), lossless]
  • (2012) Tomandandy / Resident Evil: Retribution (Score, Soundtrack)[FLAC (tr ...
  • (1996) The Rasmus / Peep (Finnish Version) (Alternative Rock) [FLAC (tracks ...
  • (2011) Ляпис Трубецкой / Веселые картинки (Rock) [FLAC (tracks+.cue), lossl ...
  • (2011) Scorpions / Comeblack (Hard Rock) [FLAC (tracks+.cue)lossless]
  • (2011) Дельфин / Существо (Alternative|Experimental) [FLAC (tracks+.cue), l ...
  • (2011) Ленинград / Хна (Rock) [FLAC (tracks+.cue), lossless]
  • (2012) Les Friction / Les Friction (Alt. Rock/Neo-Classical/Orchestral) [FL ...
  • (2011) SeeS / The enD (Progressive/Math Metal) [FLAC (tracks+.cue), lossles ...
  • (2011) Downhere / On The Altar Of Love (Alternative Rock/Christian Rock) [F ...
  • (2012) Our Lady Peace / Curve (Alternative/Rock) [FLAC (tracks+.cue), lossl ...
  • (2012) Nine Lashes / World We View (Alt.Rock/Alt.Metal/Christian) [FLAC (tr ...
  • (2011) Phinehas / Thegodmachine (Metalcore) [FLAC (tracks+.cue), lossless]
  • (Дискография, 2008-2011) Bon Iver (Folk-rock, Indie-folk, Indie-rock) [FLAC ...
  • Информация
    Посетители, находящиеся в группе Гости, не могут оставлять комментарии к данной публикации.