вход на сайт

Имя пользователя :
Пароль :

Восстановление пароля Регистрация
(2011) Red Hot Chili Peppers / Im With You (Alternative Rock/Funk) [FLAC (tracks+.cue)lossless]
Рейтинг:
(голосов: 1)



[img]{THEME}/images/logopost.png[/img]





Альбом: Im With You
Тип альбома: Студийный
Год выпуска: 2011
Страна: США
Жанр: Alternative Rock/Funk
Формат: FLAC (tracks+.cue)
Битрейт: lossless
Продолжительность: 00:59:29



01.Monarchy Of Roses[04:12]
02.Factory Of Faith[04:21]
03.Brendans Death Song[05:39]
04.Ethiopia[03:51]
05.Annie Wants A Baby[03:40]
06.Look Around[03:28]
07.The Adventures Of Rain Dance Maggie[04:43]
08.Did I Let You Know[04:21]
09.Goodbye Hooray[03:52]
10.Happiness Loves Company[03:33]
11.Police Station[05:35]
12.Even You Brutus?[04:01]
13.Meet Me At The Corner[04:22]
14.Dance, Dance, Dance[03:45]

"Лог EAC" ▼
Exact Audio Copy V1.0 beta 2 from 29. April 2011

EAC extraction logfile from 28. August 2011, 2:21

Red Hot Chili Peppers / Im With You

Used drive: ASUSDRW-1814BLT Adapter: 0ID: 1

Read mode : Secure
Utilize accurate stream : Yes
Defeat audio cache: Yes
Make use of C2 pointers : No

Read offset correction: 6
Overread into Lead-In and Lead-Out: No
Fill up missing offset samples with silence : Yes
Delete leading and trailing silent blocks : No
Null samples used in CRC calculations : Yes
Used interface: Native Win32 interface for Win NT & 2000
Gap handling: Appended to previous track

Used output format: User Defined Encoder
Selected bitrate: 128 kBit/s
Quality : High
Add ID3 tag : No
Command line compressor : C:Program Files (x86)Exact Audio CopyFlacflac.exe
Additional command line options : -V -8 -T "Genre=%genre%" -T "Artist=%artist%" -T "Title=%title%" -T "Album=%albumtitle%" -T "Date=%year%" -T "Tracknumber=%tracknr%" -T "Comment=%comment%" %source%

TOC of the extracted CD

Track | Start|Length| Start sector | End sector
---------------------------------------------------------
1|0:00.15 |4:12.32 |15|18946
2|4:12.47 |4:21.46 | 18947|38567
3|8:34.18 |5:39.61 | 38568|64053
4| 14:14.04 |3:51.00 | 64054|81378
5| 18:05.04 |3:40.
4d6564da2ef9a34658936634d1a1ee337d4facea(2011) Red Hot Chili Peppers / Im With You (Alternative Rock/Funk) [FLAC (tracks+.cue)lossless] (2011) Red Hot Chili Peppers / Im With You (Alternative Rock/Funk) [FLAC (tracks+.cue)lossless] " />

Аплоадер: Админ, дата: 4-09-2011, 12:05, торрент скачан: 359 раз

Понравилась раздача? Посмотрите эти:
  • (1999) Red Hot Chili Peppers - Californication (Alternative rock, Funk) [FL ...
  • (2009) ONE REPUBLIC / Waking Up (Pop-Rock/Alternative) [FLAC (tracks+.cue) ...
  • (2010)Scorpions/Sting In The Tail [FLAC (tracks+cue), lossless]
  • (2010) ПИKНИК / Театр Абсурда (Art-Rock) [FLAC (tracks+.cue), lossless]
  • (2010) Deftones / Diamond Eyes (Nu metal / Alternative) [FLAC, (tracks+ cu ...
  • (2008) Pink / Funhouse (Pop) [FLAC (tracks) lossless]
  • (2010) Bloodhound Gang / Show Us Your Hits (Alternative Rock,Comedy Punk) [ ...
  • (2009) Radiohead / Hail To The Thief [Collectors Edition: 2-nd CD] (Alterna ...
  • (2006) DMX / Year Of The Dog...Again (EU) (Rap) [FLAC (tracks)]
  • (2011) Coldplay / Mylo Xyloto (Alternative Rock) [FLAC (tracks+.cue), lossl ...
  • (2009) Dead By Sunrise / Out Of Ashes (Japanese Edition) (Alternative Rock) ...
  • (2012) Mark Lanegan Band / Blues Funeral (Alternative Rock/Blues Rock) [FLA ...
  • (2012) Son Of A Bad Man / Heres To The Falling In... (Alt.Rock) [FLAC (trac ...
  • (1996) The Rasmus / Peep (Finnish Version) (Alternative Rock) [FLAC (tracks ...
  • (2011) Nero / Welcome Reality (Dubstep / House / Drum & Bass) [FLAC (tracks ...
  • (2011) Evanescence / Evanescence (Alternative Rock) [FLAC (tracks+.cue), lo ...
  • (2011) Дельфин / Существо (Alternative|Experimental) [FLAC (tracks+.cue), l ...
  • (2011) Ленинград / Хна (Rock) [FLAC (tracks+.cue), lossless]
  • (2012) The Cranberries / Roses (Alternative Rock / Pop-Rock) [FLAC (tracks+ ...
  • (2012) Anneke van Giersbergen / Everything Is Changing (Alternative Rock/Fe ...
  • (2011) Downhere / On The Altar Of Love (Alternative Rock/Christian Rock) [F ...
  • (2012) Our Lady Peace / Curve (Alternative/Rock) [FLAC (tracks+.cue), lossl ...
  • (2011) Святослав Вакарчук (Океан Эльзы) / Брюссель (Rock/Soft Rock) [FLAC ( ...
  • (2012) Thousand Foot Krutch / The End Is Where We Begin (Christian/Alt.Rock ...
  • (2011) Phinehas / Thegodmachine (Metalcore) [FLAC (tracks+.cue), lossless]
  • Информация
    Посетители, находящиеся в группе Гости, не могут оставлять комментарии к данной публикации.