вход на сайт

Имя пользователя :
Пароль :

Восстановление пароля Регистрация
(Дискография 2006 - 2011) Human Zoo (Melodic Hard Rock) [FLAC (image+.cue), lossless]
Рейтинг:
(голосов: 1)



[img]{THEME}/images/logopost.png[/img]



ИсполнительHuman Zoo
Жанр: Melodic Hard Rock
Страна: Germany
Формат: FLAC (*.flac) (image+.cue)
Битрейт: lossless
Продолжительность: 02:31:54

Классическое звучание немецкого хард-рока, совмещённое с оригинальными партиями саксофона, не оставит равнодушным ни одного преданного фаната тяжелой музыки.

STUDIO ALBUMS:

2006 - Precious Time▼

Издатель (лейбл): BOB MEDIA/IROND
Номер по каталогу: BOB 20004-2/08-DD587
Продолжительность: 00:52:10

Треклист:

[00:59] 01. Human Zoo - Cosmopolitan Scene Part I
[04:17] 02. Human Zoo - Raise Your Hands
[04:36] 03. Human Zoo - Taste Like Sugar
[05:09] 04. Human Zoo - Hold The Line
[05:19] 05. Human Zoo - In The Rain
[05:29] 06. Human Zoo - Let Me Be
[04:25] 07. Human Zoo - To The Limit
[00:33] 08. Human Zoo - N.Y.Subchord
[03:59] 09. Human Zoo - Keep On Rockin
[04:29] 10. Human Zoo - Give It Up
[04:54] 11. Human Zoo - Crowds On Fire
[04:01] 12. Human Zoo - Straight On The Road (Live)
[03:53] 13. Human Zoo - In The Rain (Acoustic Version)
Log EAC:▼
Exact Audio Copy V0.99 prebeta 5 from 4. May 2009

Отчёт EAC об извлечении, выполненном 29. августа 2011, 7:13

Human Zoo / Precious Time

Дисковод: _NECDVD_RW ND-3550A Adapter: 0ID: 0

Режим чтения : Достоверность
Использование точного потока : Да
Отключение кэша аудио: Да
Использование указателей C2: Нет

Коррекция смещения при чтении : 48
Способность читать области Lead-in и Lead-out : Нет
Заполнение пропущенных сэмплов тишиной: Да
Удаление блоков с тишиной в начале и конце: Нет
При вычислениях CRC использовались нулевые сэмплы : Да
Интерфейс : Установленный внешний ASPI-интерфейс

Выходной формат: Пользовательский кодировщик
Выбранный битрейт: 320 kBit/s
Качество : Высокий
Добавление ID3-тэга: Нет
Утилита сжатия : D:Program filesАудио копиExact Audio CopyFlacflac.exe
Дополнительные параметры : -V -8 -T "artist=%a" -T "title=%t" -T "album=%g" -T "date=%y" -T "tracknumber=%n" -T "genre=%m" %s

TOC извлечённого CD

Трек | Старт| Длительность | Начальный сектор | Конечный сектор
---------------------------------------------------------------------
1|0:00.00 |0:59.47 | 0| 4471
2|0:59.47 |4:17.17 |4472|23763
3|5:16.64 |4:36.13 | 23764|44476
&
530a469b1379438c182eefeff8f2e94533312126(Дискография 2006 - 2011) Human Zoo (Melodic Hard Rock) [FLAC (image+.cue), lossless] (Дискография 2006 - 2011) Human Zoo (Melodic Hard Rock) [FLAC (image+.cue), lossless] " />

Аплоадер: Админ, дата: 31-08-2011, 21:06, торрент скачан: 359 раз

Понравилась раздача? Посмотрите эти:
  • (1993) Coverdale & Page / Coverdale & Page (EMI Holland)(Hard Rock) [FLAC ( ...
  • (2000) a-ha / Minor Earth | Major Sky (Alternative Rock, Synth-pop ) [FLAC ...
  • (2013) Pinnick Gales Pridgen / Pinnick Gales Pridgen (Hard Rock, Heavy Blue ...
  • (2013) Krokus / Dirty Dynamite (Hard Rock) [FLAC (image+.cue), lossless]
  • (2012) Downplay / The Human Condition [EP] (Alt.Rock / Hard Rock) [mp3, 32 ...
  • (2010) Мафик / Ангел (Шансон) [FLAC(image+cue), lossless]
  • (1999) Ennio Morricone / Romantic Collection (Classical) [FLAC (image+.cue) ...
  • (1988) James Last / Romantic Love Songs (Instrumental) [FLAC (image+.cue) l ...
  • (2006) Батырхан Шукенов/ Отан Ана (Pop) [FLAC (image+.cue) lossless]
  • (2006) Tokio / puls 200 (Alternative Rock / Pop Rock) [FLAC (image+.cue) lo ...
  • (2010) БИ-2 / О чём говорят мужчины (Pop-Rock) [FLAC (image + .cue), lossle ...
  • (2011) Within Temptation / The Unforgiving (Symphonic Gothic Metal) [FLAC ( ...
  • (2004) Genesis / Platinum Collection (Art Rock) [FLAC (image+.cue), lossles ...
  • (Дискография, 2006-2011) Светлана Копылова (Православная песня) [FLAC (imag ...
  • (Дискография, 1977-1980) Fandango (R&B, Melodic Hard Rock, Electric Pop Roc ...
  • (2012) The Rasmus / The Rasmus (Alternative Rock/Melodic Rock) [FLAC (track ...
  • (2012) The Blues Overdrive / The Blues Overdrive (Blues-Rock) [FLAC (image+ ...
  • (2006) УЛЫТАУ / ULYTAU - Жумыр-Кылыш / Jumyr-Kylysh (ethnic / folk metal / ...
  • Prime Loops - Human Beat Box (Wav)
  • (2000) Парк Горького (Gorky Park) / The Best (Glam Metal/Hard Rock) [FLAC ...
  • Информация
    Посетители, находящиеся в группе Гости, не могут оставлять комментарии к данной публикации.