вход на сайт

Имя пользователя :
Пароль :

Восстановление пароля Регистрация
(Дискография1983 - 1985) Eddie Jobson (ProgRock, Electronic) [APE (image+.cue), lossless]
Рейтинг:
(голосов: 1)



[img]{THEME}/images/logopost.png[/img]



Дискография
Исполнитель: Eddie Jobson
Жанр: ProgRock, Electronic
Формат: APE/image+.cue
Битрейт: lossless
Продолжительность: 01:27:23

Эдди Джобсон (англ. Eddie Jobson, настоящее имя Эдвин Джобсон, англ. Edwin Jobson; 28 апреля 1955, Биллингем, Стоктон-он-Тис, Англия) — английский виртуозный клавишник и скрипач, музыкант с классическим образованием, яркий представитель арт-рок музыки. Участник групп U.K., Roxy Music, Jethro Tull, Curved Air, работал с King Crimson, Франком Заппой, был приглашенным музыкантом на выступлениях Yes, Deep Purple и др.

STUDIO ALBUMS:
▼1983 - The Green Album (APE/image+.cue)▼

Производитель диска: Канада
Продолжительность: 00:46:18

Трэклист:

01. Transporter (1:10)
02. Resident (6:00)
03. Easy for You to Say (4:07)
04. Prelude 2:30)
05. Nostalgia 2:30)
06. Walking from Pastel (2:04)
07. Turn It Over 4:15)
08. Green Face (4:21)
09. Who My Friends... (6:33)
10. Colour Code (1:06)
11. Listen to Reason (5:25)
12. Through the Glass (6:05)
13. Transporter II (0:18)

Exact Audio Copy V0.99 prebeta 4 from 23. January 2008

EAC extraction logfile from 10. July 2009, 14:16

Eddie Jobson.Zinc / The Green Album

Used drive : PIONEER DVD-RW DVR-105 Adapter: 0 ID: 1

Read mode : Secure
Utilize accurate stream : Yes
Defeat audio cache : Yes
Make use of C2 pointers : No

Read offset correction : 48
Overread into Lead-In and Lead-Out : Yes
Fill up missing offset samples with silence : Yes
Delete leading and trailing silent blocks : No
Null samples used in CRC calculations : Yes
Used interface : Installed external ASPI interface

Used output format : Monkeys Audio Lossless Encoder
Selected bitrate : High Lossless Compression
Quality : High
Add ID3 tag : Yes
Command line compressor : C:Program FilesMonkeys AudioMonkeys Audio.exe

TOC of the extracted CD

Track | Start | Length | Start sector | End sector
---------------------------------------------------------
1 | 0:00.32 | 1:10.25 | 32 | 5306
2 | 1:10.57 | 6:00.00 | 5307 | 32306
3 | 7:10.57 | 4:06.50 | 32307 | 50806
4 | 11:17.32 | 2:29.40 | 50807 | 62021
5 | 13:46.72 | 2:30.25 | 62022 | 73296
6 | 16:17.22 | 2:03.50 | 73297 | 82571
7 | 18:20.72 | 4:14.35 | 82572 | 101656
8 | 22:35.32 | 4:20.53 | 101657 | 121209
9 | 26:56.10 | 6:32.40 | 121210 | 150649
10 | 33:28.50 | 1:06.07 | 150650 | 155606
11 | 34:34.57 | 5:25.08 | 155607 | 179989
12 | 39:59.65 | 6:05.12 | 179990 | 207376
13 | 46:05.02 | 0:17.73 | 207377 | 208724

Range status and errors

Selected range

Filename .PSFHomeDesktop RIPEddie Jobson.Zinc - The Green AlbumEddie Jobson.Zinc - The Green Album.wav

Peak level 93.6 %
Range quality 99.9 %
Test CRC 0E25ED6F
Copy CRC 0E25ED6F
Copy OK

No errors occurred

AccurateRip summary

Track 1 accurately ripped (confidence 4) [AC0EC029]
Track 2 accurately ripped (confidence 4) [C3AFF6FE]
Track 3 accurately ripped (confidence 4) [FC443C9A]
Track 4 accurately ripped (confidence 4) [72B132AB]
Track 5 accurately ripped (confidence 4) [91EA5314]
Track 6 accurately ripped (confidence 3) [8A6C36BB]
Track 7 accurately ripped (confidence 4) [6833F083]
Track 8 accurately ripped (confidence 4) [E2C39FFC]
Track 9 accurately ripped (confidence 4) [B53D3B79]
Track 10 accurately ripped (confidence 4) [583851FC]
Track 11 accurately ripped (confidence 4) [1B5E3F9B]
Track 12 accurately ripped (confidence 4) [34BFA462]
Track 13 accurately ripped (confidence 4) [5F65F0AF]

All tracks accurately ripped

End of status report
1985 - Theme Of Secrets (APE/image+.cue)▼

Производитель диска: USA, Private Music, 1501
Продолжительность: 00:41:02

Трэклист:

01. Inner Secrets (3:50)
02. Spheres Of Influence (2:58)
03. The Sojourn (6:30)
04. Ice Festival (5:36)
05. Theme Of Secrets (5:23)
06. Memories Of Vienna (5:00)
07. Lakemist (6:00)
08. Outer Secrets (5:35)

Exact Audio Copy V0.99 prebeta
65e0766afb44d0e4623c95db46efde84c873a8fb(Дискография1983 - 1985) Eddie Jobson (ProgRock, Electronic) [APE (image+.cue), lossless] (Дискография1983 - 1985) Eddie Jobson (ProgRock, Electronic) [APE (image+.cue), lossless] " />

Аплоадер: Админ, дата: 31-08-2011, 19:48, торрент скачан: 359 раз

Понравилась раздача? Посмотрите эти:
  • (2013) Linkin Park & Steve Aoki / A Light That Never Comes (Electronic Rock ...
  • (2002) Urker / Уркер / Made In Kazakhstan (Pop, Ethno) [FLAC (image+.cue), ...
  • (2013) Depeche Mode - Heaven (CD Maxi-Single) (Synthpop) [FLAC (image+.cue) ...
  • (Soundtrack,2002) Пианист / The Pianist - Music from the Motion Picture (Fr ...
  • ( Soundtrack,1999) VA - American Beauty Original Motion Picture Soundtrack ...
  • (Дискография) 1981-2009 Depeche Mode (Electronic, Synthpop) [FLAC (tracks+ ...
  • (1977) Jethro Tull / Songs from the wood (Rock, Art-Rock) [FLAC (track+ cue ...
  • (1989) Kaoma / Lambada (lambada / latin / ethnic) [FLAC (image+.cue), lossl ...
  • Slayer - 12 CD (Original Japanese Editions) (Thrash Metal) [FLAC(image+.cue ...
  • (1968) Ten Years After / Undead (Rock / Blues / Blues Rock) [Flac (tracks+. ...
  • (2003) Пикник / Говорит и показывает (Полная история) (Rock) [WavPack (imag ...
  • (Дискография, 1985 - 2009) Sandra (Pop) [APE (image+.cue), FLAC (image+.cue ...
  • (2011, 5CD Box set) Boney M / Original Album Classics (Reggae, Disco, R&B, ...
  • (2002) PPK (ППК) / ReLoad. Russian Trance (Trance) [FLAC (tracks+cue), loss ...
  • (1984) Van Halen / 1984 (Japanese 1984 SHM-CD Edition) (Hard & Heavy) [APE ...
  • (2012) George Michael / White Light (Pop, Electronic) [FLAC (image+.cue), l ...
  • (2007) Maximum the Hormone / マキシマム ザ ホルモン / Buiikikaesu (Hardcore / J-Rock ...
  • (2003) DJ Zinc / Faster (DnB, Breaks) [ FLAC (tracks+.cue), lossless]
  • (2011) Linkin Park / Iridescent (Alternative Rock) [FLAC(image+.cue), lossl ...
  • (Дискография, 2002 - 2012) Rodrigo y Gabriela (Acoustic, Flamenco, Classica ...
  • (1994, 5 CD Box set) Echoes Of Nature (Звуки природы) / The Natural Sounds ...
  • (2012) Young Guns / Bones (Alternative Rock) [FLAC (tracks +.cue), lossless ...
  • (2011) Sylvan / Sceneries (Neo-Progressive) [FLAC (image+.cue), lossless]
  • (2009) Exivious (Ex. Cynic) / Exivious (Progressive Metal/Death Metal) [FLA ...
  • (2010) Татьяна Буланова / Романсы (Pop) [FLAC (image+.cue), lossless]
  • Информация
    Посетители, находящиеся в группе Гости, не могут оставлять комментарии к данной публикации.