вход на сайт

Имя пользователя :
Пароль :

Восстановление пароля Регистрация
(Студийная дискография) Jon (Anderson) & Vangelis - 4 альбома (Electronic Prog) [FLAC (image+.cue), lossless]
Рейтинг:
(голосов: 1)



[img]{THEME}/images/logopost.png[/img]



студийная дискография (1980-1991)
Исполнитель: Jon (Anderson) & Vangelis
Страна: United-Kingdom
Жанр: Electronic Prog
Производитель: Germany
Формат: FLAC (image+.cue)
Битрейт: lossless
Продолжительность: 03:11:01

Evángelos Odysséas Papathanassíou, aka Vangelis: Keyboard (ex-Aphrodites Child}
John Roy Anderson, aka Jon Anderson: Vocals (ex-Yes)

1980 - Short Stories (800 027-2)▼

Тип альбома:Студийный
Дата выпуска альбома: 1980
CD: Wesy Germany, Polydor, 800 027-2, (1983)
Формат: FLAC (image+.cue)
Битрейт: lossless
Продолжительность: 00:45:12

Треклист:

01. Curious Electric 6:42
02. Each and Everyday / Bird Song 5:08
03. I Hear You Now 5:13
04. The Road 4:31
05. Far Away in Baagad / Love Is 8:04
06. One More Time 6:18
07. Thunder 2:14
08. A Play Within A Play 7:02

Треклист (от LP), заявленный в полиграфии, не соответствует действительному положению дел: на CD объединены 2-й и 3-й, а также 6-й и 7-й треки.

Jon Anderson: All Vocals
Vangelis: Keyboards, Synthesizers, Piano, Electronics
Raphael Preston: Acoustic Guitars

Produced by Vangelis

Exact Audio Copy V1.0 beta 1 from 15. November 2010

EAC extraction logfile from 8. June 2011, 18:59

Jon and Vangelis / Short Stories (800 027-2)

Used drive: TEACDV-W516GDM Adapter: 0ID: 1

Read mode : Secure
Utilize accurate stream : Yes
Defeat audio cache: Yes
Make use of C2 pointers : No

Read offset correction: 6
Overread into Lead-In and Lead-Out: No
Fill up missing offset samples with silence : Yes
Delete leading and trailing silent blocks : No
Null samples used in CRC calculations : Yes
Used interface: Native Win32 interface for Win NT & 2000

Used output format: User Defined Encoder
Selected bitrate: 896 kBit/s
Quality : High
Add ID3 tag : No
Command line compressor : C:Program FilesExact Audio Copy 1.0Flac lac.exe
Additional command line options : -8 -V %s

TOC of the extracted CD

Track | Start|Length| Start sector | End sector
---------------------------------------------------------
1|0:00.33 |6:42.20 |33|30202
2|6:42.53 |5:08.72 | 30203|53374
3| 11:51.50 |5:13.10 | 53375|76859
4| 17:04.60 |4:31.38 |&n
98a92e3ae49b9c47bb837f824ea23a1a5cdae028(Студийная дискография) Jon (Anderson) & Vangelis - 4 альбома (Electronic Prog) [FLAC (image+.cue), lossless] (Студийная дискография) Jon (Anderson) & Vangelis - 4 альбома (Electronic Prog) [FLAC (image+.cue), lossless] " />

Аплоадер: Админ, дата: 28-06-2011, 23:53, торрент скачан: 359 раз

Понравилась раздача? Посмотрите эти:
  • (1996) George Michael / Older (1st Press Japan) (Electronic, Pop/Rock) [FLA ...
  • (2007) GORILLAZ / D-Sides [Japan Edition] (Hip-Hop) [FLAC (image+cue), loss ...
  • (1989) Kaoma / Lambada (lambada / latin / ethnic) [FLAC (image+.cue), lossl ...
  • (2008) Pink / Funhouse (Pop) [FLAC (tracks) lossless]
  • (Дискография) GORILLAZ (Trip-Hop) [FLAC (tracks + .cue) lossless]
  • (2010) Сергей Трофимов (Трофим) / Всё не важно (Шансон) [FLAC(image+.cue), ...
  • (2010) Ассаи / Лифт (Rap) [FLAC(image+.cue), lossless]
  • (2010) A-HA / 25 (2 CD) (Pop) [FLAC (image + .cue)]
  • (2010) Michael Jackson - Michael (Pop) [FLAC, (tracks+.cue), lossless]
  • (2011) The Prodigy / Worlds On Fire (Big Beat, Rave) [FLAC (image+.cue), lo ...
  • (Дискография, 1988-2011) Kingdom Come (Hard&Heavy,Glam Metal) [FLAC (image+ ...
  • (2012) Kreator / Phantom Antichrist (Thrash Metal) [FLAC (image+.cue), loss ...
  • (2010) Rihanna / Loud (R&B) [FLAC (tracks+.cue), lossless]
  • (2003) DJ Zinc / Faster (DnB, Breaks) [ FLAC (tracks+.cue), lossless]
  • (1976) The Eagles / Hotel California [Japan Remastered] (Country Rock) [FLA ...
  • (2010) Morcheeba / Blood Like Lemonade ( Electronic, Downtempo, Pop, Trip-h ...
  • (2010) Linkin Park / A Thousand Suns (Alternative, Electronic) [FLAC (track ...
  • (2011) Yanni / Truth Of Touch (New Age) [FLAC (image+ .cue),lossless]
  • (2011) Electric Universe / Higher Modes (Psytrance, Full On) [FLAC (tracks+ ...
  • (2009) Чиж & Co / Лучшее. Золотая коллекция (Rock) [FLAC (image+.cue), loss ...
  • (2011) Stargazery / Eye On The Sky (Heavy Metal) [FLAC (image+.cue), lossle ...
  • (2011) Слот / F5 (Alternative Metal) [FLAC (image+.cue)lossless]
  • (2011) Слот / Break The Code (Alternative Metal) [FLAC (image+.cue)lossless ...
  • (2010) Dutch / A Bright Cold Day (Trip-Hop) [FLAC (image+.cue), lossless]
  • (2012) Сплин / Обман зрения (Rock) [FLAC (image+.cue), lossless]
  • Информация
    Посетители, находящиеся в группе Гости, не могут оставлять комментарии к данной публикации.