вход на сайт

Имя пользователя :
Пароль :

Восстановление пароля Регистрация
(Дискография) Supertramp (Progressive & Art-Rock) [APE/FLAC (image/tracks+.сue), Lossless]
Рейтинг:
(голосов: 1)



[img]{THEME}/images/logopost.png[/img]



Дискография
Исполнитель: Supertramp
Жанр: Progressive & Art-Rock
Формат: APE/FLAC (image/divacks+.сue)
Битрейт: lossless
Продолжительность: 14:05:18

Supertramp (чит. Су́пертрэмп) — британская рок-группа, чью музыку относят к направлениям прогрессивный рок. Образована Риком Дэвисом и Роджером Ходжсоном в 1969 году. Ранний период творчества группы отмечен амбициозными концептуальными альбомами, в то время как наибольшую популярность ей принесли более поздние хиты, среди которых «Breakfast in America», «Dreamer», «Goodbye Stranger», «Give A Little Bit» и «The Logical Song». Несмотря на успешные продажи записей группа никогда не считалась звёздной. О её музыкантах говорят, что по количеству проданных пластинок они рекордсмены среди людей, которых не узнают на улице

1970 - Supertramp▼

Тип альбома: Студийный
Формат: APE (image+.сue)
Битрейт: lossless
Продолжительность: 00:47:55

Tреклист:

[00:31] 01. Supertramp - Surely
[05:33] 02. Supertramp - Its a long road
[05:17] 03. Supertramp - Aubade
[03:59] 04. Supertramp - Words unspoken
[06:44] 05. Supertramp - Maybe Im a beggar
[01:15] 06. Supertramp - Home again
[04:53] 07. Supertramp - Nothing to show
[04:23] 08. Supertramp - Shadow song
[12:02] 09. Supertramp - Try again
[03:08] 10. Supertramp - Surely

Exact Audio Copy V0.99 prebeta 1 from 25. May 2007

EAC extraction logfile from 4. January 2008, 12:44

Supertramp / Supertramp

Used drive: _NECCDRW/DVD CB1100A Adapter: 3ID: 0

Read mode : Secure
Utilize accurate stream : Yes
Defeat audio cache: Yes
Make use of C2 pointers : No

Read offset correction: 88
Overread into Lead-In and Lead-Out: No
Fill up missing offset samples with silence : Yes
Delete leading and trailing silent blocks : No
Used interface: Installed external ASPI interface

Used output format : Monkeys Audio Lossless Encoder v3.99 DLL
Sample format: High Lossless Compression


TOC of the extracted CD

Track | Start|Length| Start sector | End sector
---------------------------------------------------------
1|0:00.00 |0:31.37 | 0| 2361
2|0:31.37 |5:33.38 |2362|27374
3|6:05.00 |5:17.05 | 27375|51154
4| 11:22.05 |3:59.55 | 51155|69134
5| 15:21.60 |6:44.40 | 69135|99474
6| 22:06.25 |1:15.25 | 99475| 
8b24a6010db0d5f4a1b354008c5e2611c8bfab51(Дискография) Supertramp (Progressive & Art-Rock) [APE/FLAC (image/divacks+.сue), Lossless] (Дискография) Supertramp (Progressive & Art-Rock) [APE/FLAC (image/divacks+.сue), Lossless] " />

Аплоадер: Админ, дата: 12-06-2011, 16:13, торрент скачан: 359 раз

Понравилась раздача? Посмотрите эти:
  • (2014) Ozzy Osbourne / Dreamer (Hard Rock, Heavy Metal, Power Ballad) [FLAC ...
  • (1989) Kaoma / Lambada (lambada / latin / ethnic) [FLAC (image+.cue), lossl ...
  • (2010) Сергей Трофимов (Трофим) / Всё не важно (Шансон) [FLAC(image+.cue), ...
  • (2010) Ассаи / Лифт (Rap) [FLAC(image+.cue), lossless]
  • (2007) Константин Никольский / Иллюзии (Rock) [APE (image + .cue), lossless ...
  • (2011) Uriah Heep - Into The Wild (Hard Rock, Progressive Rock)[FLAC (track ...
  • (2008) Юрий Наумов / Рок как будто Блюз (Blues) [FLAC (Image+.cue), lossles ...
  • (Дискография, 1988-2011) Kingdom Come (Hard&Heavy,Glam Metal) [FLAC (image+ ...
  • (2011) 3 Doors Down / Time Of My Life [Deluxe Edition] (Alternative Rock/Po ...
  • (1996) DJ Dado / The Album (Electronic, Dream trance) [FLAC (image+.сue), l ...
  • (2012) Uriah Heep / Logical Revelations (Hard Rock) [FLAC (image +.cue), lo ...
  • (Сборник, 1974 - 1985) Supertramp / 6 альбомов (SHM Japan, CD France ) (Pro ...
  • (Сборник, 1984 - 1987) Roger Hodgson (ex. lead vocal "Supertramp") / 2 аль ...
  • (1976) The Eagles / Hotel California [Japan Remastered] (Country Rock) [FLA ...
  • (2011) Yanni / Truth Of Touch (New Age) [FLAC (image+ .cue),lossless]
  • (2011) Стас Михайлов / Только ты (Шансон) [Flac(image+.cue)Lossless]
  • (2009) Чиж & Co / Лучшее. Золотая коллекция (Rock) [FLAC (image+.cue), loss ...
  • (2012) Fox / 2012 (Melodic Hard Rock) [FLAC (image +.cue), lossless]
  • (2012) Оргия Праведников / Шитрок (Rock/Progressive Rock) [FLAC (tracks+cue ...
  • (2012) Muse / The 2nd Law (Alternative Rock, Progressive Rock) [FLAC (image ...
  • Информация
    Посетители, находящиеся в группе Гости, не могут оставлять комментарии к данной публикации.