вход на сайт

Имя пользователя :
Пароль :

Восстановление пароля Регистрация
(Дискография) Chris Isaak (Blues Rock/Southern Rock/Pop Rock) [APE/FLAC (image/tracks+.cue), Lossless]
Рейтинг:
(голосов: 1)



[img]{THEME}/images/logopost.png[/img]



Дискография
Исполнитель: Christopher Joseph Isaak
Жанр: Blues Rock/Southern Rock/Pop Rock
Формат: APE/FLAC (image/divacks+.cue)
Битрейт: lossless
Продолжительность: 07:09:50

Об исполнителе: Крис Айзек (англ. Chris Isaak; род. 26 июня 1956) — американский исполнитель и автор песен, сыгравший также несколько ролей в кино.
Старинная рок-н-ролльная мудрость гласит: у каждого времени должен быть свой Элвис. Крис Айзек бестрепетно и неоднократно объявлял себя в интервью правопреемником великого короля — и был совершенно прав. Эффектная внешность а-ля 50-е, великолепный голос и вызывающие ностальгию хиты тому доказательство.

1985 - Silvertone (1987)▼

Тип альбома: Студийный
Формат: APE (Image + .Cue)
Битрейт аудио: lossless
Продолжительность: 00:36:40

Треклист:

[03:45] 01. Chris Isaak - Dancin
[03:08] 02. Chris Isaak - Talk To Me
[02:56] 03. Chris Isaak - Livin For Your Lover
[03:15] 04. Chris Isaak - Back On Your Side
[02:41] 05. Chris Isaak - Voodoo
[03:23] 06. Chris Isaak - Funeral In The Rain
[03:15] 07. Chris Isaak - The Lonely Ones
[03:09] 08. Chris Isaak - Unhappiness
[02:47] 09. Chris Isaak - Tears
[02:38] 10. Chris Isaak - Gone Ridin
[02:25] 11. Chris Isaak - Pretty Girls Dont Cry
[03:11] 12. Chris Isaak - Western Stars

Exact Audio Copy V0.99 prebeta 5 from 4. May 2009

Отчёт EAC об извлечении, выполненном 23. августа 2009, 22:14

Chris Isaak / Silvertone

Дисковод: MATSHITACD-ROM CR-594 Adapter: 0 ID: 0

Режим чтения : Достоверность
Использование точного потока : Да
Отключение кэша аудио : Да
Использование указателей C2 : Нет

Коррекция смещения при чтении : 99
Способность читать области Lead-in и Lead-out : Нет
Заполнение пропущенных сэмплов тишиной : Да
Удаление блоков с тишиной в начале и конце : Нет
При вычислениях CRC использовались нулевые сэмплы : Да
Интерфейс : Установленный внешний ASPI-интерфейс

Выходной формат : Внутренние WAV-операции
Формат сэмплов : 44.100 Гц; 16 бит; стерео


TOC извлечённого CD

Трек | Старт | Длительность | Начальный сектор | Конечный сектор
---------------------------------------------------------------------
1 | 0:00.00 | 3:45.50 | 0 | 16924
2 | 3:45.50 | 3:08.67 | 16925 | 31091
3 | 6:54.42 | 2:56.58 | 31092 | 44349
4 | 9:51.25 | 3:15.72 | 44350 | 59046
5 | 13:07.22 | 2:41.68 | 59047 | 71189
6 | 15:49.15 | 3:23.25 | 71190 | 86439
7 | 19:12.40 | 3:15.15 | 86440 | 101079
8 | 22:27.55 | 3:09.22 | 101080 | 115276
9 | 25:37.02 | 2:47.43 | 115277 | 127844
10 | 28:24.45 | 2:38.70 | 127845 | 139764
11 | 31:03.40 | 2:25.72 | 139765 | 150711
12 | 33:29.37 | 3:11.33 | 150712 | 165069


Характеристики диапазона извлечения и сообщения об ошибках

Выбранный диапазон

Имя файла D:МузыкаChris Isaak1987 - Chris Isaak - SilvertoneChris Isaak - Silvertone.wav

Пиковый уровень 77.9 %
Качество диапазона 99.9 %
CRC теста 01FE6944
CRC копии 01FE6944
Копирование... OK

Ошибок не произошло


AccurateRip: сводка

Трек 1 точное извлечение (доверие 9) [023517C0]
Трек 2 точное извлечение (доверие 9) [EC2D141B]
Трек 3 точное извлечение (доверие 9) [4DF8FAD6]
Трек 4 точное извлечение (доверие 9) [CCCFBBD2]
Трек 5 точное извлечение (доверие 9) [EAC0B1A4]
Трек 6 точное извлечение (доверие 9) [0589F587]
Трек 7 точное извлечение (доверие 9) [E5B5D03D]
Трек 8 точное извлечение (доверие 9) [14324236]
Трек 9 точное извлечение (доверие 9) [603ED04A]
Трек 10 точное извлечение (доверие 9) [83EABA12]
Трек 11 точное извлечение (доверие 9) [41C31925]
Трек 12 точное извлечение (доверие 9) [D9C344B1]

Все треки извлечены точно

Конец отчёта
1987 - Chris Isaak (1987)▼

Тип альбома: Студийный
Формат: APE (Image + .Cue)
Битрейт аудио: lossless
Продолжительность: 00:36:24

Треклист:

[03:54] 01. Chris Isaak - You Owe Me Some Kind Of Love
[03:21] 02. Chris Isaak - Heart Full Of Soul
[03:13] 03. Chris
f31e72e53e7b6c32ea974958f46bd14e4edc76c4(Дискография) Chris Isaak (Blues Rock/Southern Rock/Pop Rock) [APE/FLAC (image/divacks+.cue), Lossless] (Дискография) Chris Isaak (Blues Rock/Southern Rock/Pop Rock) [APE/FLAC (image/divacks+.cue), Lossless] " />

Аплоадер: Админ, дата: 5-05-2011, 18:06, торрент скачан: 359 раз

Понравилась раздача? Посмотрите эти:
  • (2010) Chris Rea / The Very Best Of Chris Rea (Rock) [МР3.,320/CBR]
  • (2011) Chris Brown / F.A.M.E. (Deluxe Edition)(Rap) [Mp3, 320kbps/CBR]
  • (2002-2004, сборник) VA / The Very Best Of MTV Unplugged Vol.1-3 (Rock, Pop ...
  • (2012) Chris Ribaudo / Time Passes (Blues-Rock, Instrumental) [Mp3 (tracks) ...
  • (2006) Tokio / puls 200 (Alternative Rock / Pop Rock) [FLAC (image+.cue) lo ...
  • (2008) Amaral / Gato negro Dragon rojo (Latin rock, alternative rock) [Flac ...
  • (1999,2000) Led Zeppelin / The Best Of (2CD) (Hard Rock) [Flac(image+.cue)l ...
  • (Дискография) The Doors (Classic Rock) [FLAC(tracks,image+.cue),APE(image+. ...
  • (2011) Blues Cousins / KGB Blues (Blues Rock) [FLAC (image+.cue), lossless] ...
  • (2011) Chris Rea / Santo Spirito Blues - BoxSet (3CD+2DVD) (Blues Rock) [FL ...
  • (Дискография, 1986 - 1999) Crimson Glory (Progressive Heavy Metal) [FLAC (i ...
  • (2012) The Blues Overdrive / The Blues Overdrive (Blues-Rock) [FLAC (image+ ...
  • (2006) Timati / Black Star (R&B) [(APE+.cue), lossless]
  • (2011) Chris Brown | F.A.M.E (Deluxe Edition) (Hip-Hop|R&B) [MP3,320|CBR]
  • (2002) ТАТУ - 200 по встречной (переиздание) (Pop) [lossless FLAC (image +. ...
  • (2009) Земфира / Z-Sides (Rock) [FLAC(image+.cue), lossless ]
  • (2006) Би-2 / Лучшие песни (Rock) [FLAC (image+.cue), lossless]
  • (1986) Dark Angel / Darkness Descends (Thrash Metal) [FLAC (image+.cue), lo ...
  • (2009) Chris Spheeris / Greatest Hits (Instrumental, NewAge) [Mp3, 320/CBR] ...
  • (1995) Steve Morse Band / Structural Damage (Instrumental Rock/Blues Rock/J ...
  • Информация
    Посетители, находящиеся в группе Гости, не могут оставлять комментарии к данной публикации.