вход на сайт

Имя пользователя :
Пароль :

Восстановление пароля Регистрация
(1968) Ten Years After / Undead (Rock / Blues / Blues Rock) [Flac (tracks+.cue), lossless]
Рейтинг:
(голосов: 1)



[img]{THEME}/images/logopost.png[/img]





Альбом: Undead
Тип альбома: Студийный
Год выпуска: 1968
Страна: Великобритания
Жанр: Rock / Blues / Blues Rock
Формат: Flac (tracks+.cue)
Битрейт: lossless
Продолжительность: 01:13:04



01.Rock Your Mama [bonus track](03:46)
02.Spoonful [bonus track](06:23)
03.I May Be Wrong, But I Won Be Wrong Always(09:49)
04.a. Summertime. b. Shantung Cabbage(05:44)
05.Spider In Your Web(07:42)
06.Woodchoppers Ball(07:38)
07.Standing At The Crossroads [bonus track](04:10)
08.a. I Cant Keep From Crying, Sometimes. b. Extension On One Chord. c. I Cant...(17:04)
09.Im Going Home(06:24)

"EAC" ▼TextExact Audio Copy V0.99 prebeta 5 from 4. May 2009

EAC extraction logfile from 14. January 2011, 14:10

Ten Years After / Undead

Used drive : ASUS DRW-20B1LT Adapter: 2 ID: 1

Read mode : Secure
Utilize accurate stream : Yes
Defeat audio cache : Yes
Make use of C2 pointers : No

Read offset correction : 6
Overread into Lead-In and Lead-Out : No
Fill up missing offset samples with silence : Yes
Delete leading and trailing silent blocks : No
Null samples used in CRC calculations : Yes
Used interface : Native Win32 interface for Win NT & 2000

Used output format : Internal WAV Routines
Sample format : 44.100 Hz; 16 Bit; Stereo


TOC of the extracted CD

Track | Start | Length | Start sector | End sector
---------------------------------------------------------
1 | 0:00.00 | 3:54.20 | 0 | 17569
2 | 3:54.20 | 6:42.35 | 17570 | 47754
3 | 10:36.55 | 10:01.11 | 47755 | 92840
4 | 20:37.66 | 5:54.01 | 92841 | 119391
5 | 26:31.67 | 7:52.27 | 119392 | 154818
6 | 34:24.19 | 7:38.30 | 154819 | 189198
7 | 42:02.49 | 5:12.03 | 189199 | 212601
8 | 47:14.52 | 17:04.29 | 212602 | 289430
9 | 64:19.06 | 6:24.19 | 289431 | 318249


Range status and errors

Selected range

Filename C:Ten Years After - Undead.wav

Peak level 98.8 %
Range quality 100.0 %
Test CRC 2AECC619
Copy CRC 2AECC619
Copy OK

No errors occurred


AccurateRip summary

Track 1 accurately ripped (confidence 25) [9AA41D3D]
Track 2 accurately ripped (confidence 25) [D720975A]
Track 3 accurately ripped (confidence 25) [DA689FEE]
Track 4 accurately ripped (confidence 25) [E0CEE65A]
Track 5 accurately ripped (confidence 25) [55B7BFD7]
Track 6 accurately ripped (confidence 25) [27B59070]
Track 7 accurately ripped (confidence 25) [E2F2901D]
Track 
69d32a381737221f2ca7e38285809c2c80a5bffd(1968) Ten Years After / Undead (Rock / Blues / Blues Rock) [Flac (tracks+.cue), lossless] (1968) Ten Years After / Undead (Rock / Blues / Blues Rock) [Flac (tracks+.cue), lossless] " />

Аплоадер: Админ, дата: 1-05-2011, 04:02, торрент скачан: 359 раз

Понравилась раздача? Посмотрите эти:
  • (2013) Мумий Тролль / SOS Матросу - 2013, (Rock) [FLAC (image+.cue), lossle ...
  • (2002) Urker / Уркер / Made In Kazakhstan (Pop, Ethno) [FLAC (image+.cue), ...
  • (Soundtrack,2002) Пианист / The Pianist - Music from the Motion Picture (Fr ...
  • ( Soundtrack,1999) VA - American Beauty Original Motion Picture Soundtrack ...
  • (Дискография) 1981-2009 Depeche Mode (Electronic, Synthpop) [FLAC (tracks+ ...
  • (1989) Kaoma / Lambada (lambada / latin / ethnic) [FLAC (image+.cue), lossl ...
  • Slayer - 12 CD (Original Japanese Editions) (Thrash Metal) [FLAC(image+.cue ...
  • (2003) Пикник / Говорит и показывает (Полная история) (Rock) [WavPack (imag ...
  • (Дискография1983 - 1985) Eddie Jobson (ProgRock, Electronic) [APE (image+.c ...
  • (Дискография, 1985 - 2009) Sandra (Pop) [APE (image+.cue), FLAC (image+.cue ...
  • (2011, 5CD Box set) Boney M / Original Album Classics (Reggae, Disco, R&B, ...
  • (1984) Van Halen / 1984 (Japanese 1984 SHM-CD Edition) (Hard & Heavy) [APE ...
  • (2012) Larry Miller / On The Edge (Blues Rock) [FLAC (tracks+.cue), Lossles ...
  • (2007) Maximum the Hormone / マキシマム ザ ホルモン / Buiikikaesu (Hardcore / J-Rock ...
  • (2010) Кукрыниксы / Всадники Света (Punk Rock) [FLAC (tracks+.cue), lossles ...
  • (2011) Linkin Park / Iridescent (Alternative Rock) [FLAC(image+.cue), lossl ...
  • (2011) Сурганова & Оркестр / Увидимся скоро (Rock) [FLAC (image+.cue), loss ...
  • (2011) Metallica / Beyond Magnetic (Thrash Metal) [FLAC (image+.cue), lossl ...
  • (Дискография, 2002 - 2012) Rodrigo y Gabriela (Acoustic, Flamenco, Classica ...
  • (1994, 5 CD Box set) Echoes Of Nature (Звуки природы) / The Natural Sounds ...
  • (2012) Crippled Black Phoenix / (Mankind) The Crafty Ape (Alternative/Indie ...
  • (2012) Young Guns / Bones (Alternative Rock) [FLAC (tracks +.cue), lossless ...
  • (2011) Sylvan / Sceneries (Neo-Progressive) [FLAC (image+.cue), lossless]
  • (2009) Exivious (Ex. Cynic) / Exivious (Progressive Metal/Death Metal) [FLA ...
  • (2011) Lou Reed & Metallica / Lulu (Heavy Metal, Hard Rock) [FLAC (image+.c ...
  • Информация
    Посетители, находящиеся в группе Гости, не могут оставлять комментарии к данной публикации.