вход на сайт

Имя пользователя :
Пароль :

Восстановление пароля Регистрация
(1968) The Kinks / The Kinks Are the Village Green Preservation Society (Classic rock|Britpop) [Flac (image+.cue), lossless]
Рейтинг:
(голосов: 1)



[img]{THEME}/images/logopost.png[/img]





Альбом: The Kinks Are the Village Green Preservation Society
Тип альбома: Студийный
Год выпуска: 1968
Страна: Великобритания
Жанр: Classic rock|Britpop
Формат: Flac (image+.cue)
Битрейт: lossless
Продолжительность: 01:13:04



01.The Village Green Preservation Society(02:52)
02.Do You Remember Walter(02:27)
03.Picture Book(02:35)
04.Johnny Thunder(02:30)
05.Last of the Steam-Powered Trains(04:10)
06.Big Sky(02:50)
07.Sitting by the Riverside(02:22)
08.Animal Farm(03:00)
09.Village Green(02:10)
10.Starstruck(02:26)
11.Phenomenal Cat(02:38)
12.All of My Friends Were There(02:24)
13.Wicked Annabella(02:42)
14.Monica(02:19)
15.People Take Pictures of Each Other(02:19)
16.The Village Green Preservation Society (Stereo)(02:49)
17.Do You Remember Walter (Stereo)(02:25)
18.Picture Book (Stereo)(02:36)
19.Johnny Thunder (Stereo)(02:30)
20.Monica (Stereo)(02:15)
21.Days (Stereo)(02:52)
22.Village Green (Stereo)(02:08)
23.Mr. Songbird (Stereo)(02:25)
24.Wicked Annabella (Stereo)(02:41)
25.Starstruck (Stereo)(02:20)
26.Phenomenal Cat (Stereo)(02:36)
27.People Take Pictures of Each Other (Stereo)(02:23)
28.Days (Mono Sinlge)(03:05)


"EAC" ▼TextX Lossless Decoder version 20100918 (122.1)

XLD extraction logfile from 2010-09-29 02:03:24 +0200

The Kinks / The Kinks Are the Village Green Preservation Society

Used drive : MATSHITA DVD-R UJ-898 (revision HC10)

Use cdparanoia mode : YES (CDParanoia III 10.2 engine)
Disable audio cache : OK for the drive with cache less than 2750KB
Make use of C2 pointers : NO
Read offset correction : 102
Max retry count : 100
Gap status : Analyzed, Appended

TOC of the extracted CD
Track | Start | Length | Start sector | End sector
---------------------------------------------------------
1 | 00:00:00 | 02:53:48 | 0 | 13022
2 | 02:53:48 | 02:27:47 | 13023 | 24094
3 | 05:21:20 | 02:36:00 | 24095 | 35794
4 | 07:57:20 | 02:31:44 | 35795 | 47163
5 | 10:28:64 | 04:11:01 | 47164 | 65989
6 | 14:39:65 | 02:51:52 | 65990 | 78866
7 | 17:31:42 | 02:24:11 | 78867 | 89677
8 | 19:55:53 | 03:01:38 | 89678 | 103290
9 | 22:57:16 | 02:11:64 | 103291 | 113179
10 | 25:09:05 | 02:27:14 | 113180 | 124218
11 | 27:36:19 | 02:39:13 | 124219 | 136156
12 | 30:15:32 | 02:25:45 | 136157 | 147076
13 | 32:41:02 | 02:43:61 | 147077 | 159362
14 | 35:24:63 | 02:20:63 | 159363 | 169925
15 | 37:45:51 | 02:22:10 | 169926 | 180585
 
6c2a60b7679ee03cc51006ae817bd0245ed0eb62(1968) The Kinks / The Kinks Are the Village Green Preservation Society (Classic rock|Britpop) [Flac (image+.cue), lossless] (1968) The Kinks / The Kinks Are the Village Green Preservation Society (Classic rock|Britpop) [Flac (image+.cue), lossless] " />

Аплоадер: Админ, дата: 1-05-2011, 03:39, торрент скачан: 359 раз

Понравилась раздача? Посмотрите эти:
  • (2013) Мумий Тролль / SOS Матросу - 2013, (Rock) [FLAC (image+.cue), lossle ...
  • (2013) Paramore / Paramore (Japan Edition) (Alternative Rock) [FLAC (tracks ...
  • (2012) Владимир Кузьмин / Endorfin (Русский Рок) [FLAC (image+.cue), lossle ...
  • (2002) THE KINKS / The Ultimate Collection (classic rock, britpop) [mp3, 25 ...
  • (1977) Jethro Tull / Songs from the wood (Rock, Art-Rock) [FLAC (track+ cue ...
  • (2003) Vivaldi / Violin Concertos Yehudi Menuhin (2CD) (Камерная музыка) [F ...
  • (2010) Katie Melua / The House ( jazz-pop, vocal jazz) [FLAC (tracks + .cu ...
  • (1968) Ten Years After / Undead (Rock / Blues / Blues Rock) [Flac (tracks+. ...
  • (2011) Moby / Destroyed (Electronic, Downtempo, Ambient) [FLAC (tracks+.cue ...
  • (2011, 10 CD Box set) The Kinks / The Kinks In Mono (Classic Rock, British ...
  • (2012) Bruce Springsteen / Wrecking Ball (Folk Rock) [FLAC (tracks+.cue),l ...
  • (2012) Norah Jones / Little Broken Hearts (Vocal Jazz, Alternative Rock) [F ...
  • (2009) Paul Cardall / Sacred Piano (New Age) [FLAC (tracks+.cue), lossless] ...
  • (2012) Linkin Park / LP Underground 12 (Alternative Rock) [FLAC (tracks+.cu ...
  • (2012) Lana Del Rey / Born To Die (Indie Pop) [FLAC (tracks+.cue), lossless ...
  • (2012) Unheilig / Lichter der Stadt (Limited Edition, 2CD) (Industrial, Got ...
  • (2012) Young Guns / Bones (Alternative Rock) [FLAC (tracks +.cue), lossless ...
  • (2012) Switchfoot / Vice Re-Verses (Remixes) (Alternative, Christian Rock, ...
  • (2011) 7eventh Time Down / Alive In You (Alternative Rock/Modern Rock/Chris ...
  • (2011) Lou Reed & Metallica / Lulu (Heavy Metal, Hard Rock) [FLAC (image+.c ...
  • Информация
    Посетители, находящиеся в группе Гости, не могут оставлять комментарии к данной публикации.