вход на сайт

Имя пользователя :
Пароль :

Восстановление пароля Регистрация
(2011) Emerson Lake & Palmer - Live At Nassau Coliseum 78 (2CD Set) (Rock) [FLAC (tracks+.cue),Lossless]
Рейтинг:
(голосов: 1)



[img]{THEME}/images/logopost.png[/img]



Исполнитель: Emerson Lake & Palmer
Альбом: Live At Nassau Coliseum 78 (2CD Set)
Тип альбома: Live
Информация:
Archival Material Production & Supervision by David Skye
Remastered by Randy Wine at MoonWine Studios
Tape Transfer: Rodney Pearson
Art Direction & Package Design: Lisa Glines
Project Assistance: Tony Ortiz
Ⓟ & © 2011 Leadclass Ltd.. under license to Shout! Factory.
2034 Armacost Ave.. Floor 1. Los Angeles.
CA 90025. All Rights Reserved.
Catalog#: 826663-12399 / 12400
Страна: USA
Жанр: Rock, Art Rock, Prog Rock
Формат: FLAC (tracks+.cue)
Битрейт: lossless
Продолжительность: 01:47:58
• • • • • • • • • • • • • • • • • • • • • • • •

Впервые в истории легендарной группы Emerson Lake & Palmer (ELP) концерт в Nassau Veterans Memorial Coliseum вышел официально на двойном CD альбоме 22 февраля 2011. Ранее доступный только на бутлегах - концерт был тщательно восстановлен из оригинальных аналоговых лент, чтобы обеспечить наилучшее качество звука. Показывая материал от всех своих классических альбомов 70-х годов, Live in Nassau Coliseum 78 захватывает ELP сцену на пике своего развития.

Треклист:

Disc 1 (00:58:34)

01. Hoedown - 4:46
02. Tarkus (Emerson, Lake) - 17:28
03. Take a Pebble Lake) - 3:13
04. Piano Concerto #1, 1st Movement (Emerson) - 5:21
05. Maple Leaf Rag (Joplin) - 1:29
06. Take a Pebble /Reprise/ (Emerson, Lake) - 2:54
07. Cest la Vie (Lake, Sinfield) - 4:20
08. Lucky Man (Lake ) - 3:21
09. Pictures at an Exhibition - 15:37
(Emerson, Lake, Palmer)

Disc 2 (00:49:22)

01. Tiger in a Spotlight - 4:05
(Emerson, Lake, Palmer, Sinfield)
02. Watching Over You (Lake, Sinfield) - 4:37
03. Tank (Emerson, Palmer) - 2:12
04. Drum Solo (Palmer) - 6:49
05. The Enemy God Dances with the Black Spirits (Prokofiev) - 2:45
(Excerpt from "The Scythian Suite" 2nd Movement arr,
by Emerson, Lake, Palmer)
06. Nutrocker (Fowley) - 3:48
07. Pirates (Emerson, Lake, Palmer) - 13:31
08. Fanfare for the Common Man - 11:35
(Copland am by Emerson, Lake, Palmer)

CD 1
Exact Audio Copy V0.99 prebeta 5 from 4. May 2009

EAC extraction logfile from 3. March 2011, 21:33

Emerson Lake & Palmer / Live At Nassau Coliseum 78 (CD1)

Used drive : HL-DT-STDVD-RW GSA-H11N Adapter: 1 ID: 0

Read mode : Secure
Utilize accurate stream : Yes
Defeat audio cache : Yes
Make use of C2 pointers : No

Read offset correction : 667
Overread into Lead-In and Lead-Out : No
Fill up missing offset samples with silence : Yes
Delete leading and trailing silent blocks : No
Null samples used in CRC calculations : Yes
Used interface : Installed external ASPI interface
Gap handling : Appended to previous track

Used output format : User Defined Encoder
Selected bitrate : 192 kBit/s
Quality : High
Add ID3 tag : No
Command line compressor : C:Program FilesFLACflac.exe
Additional command line options : -8 -V -T "ARTIST=%a" -T "TITLE=%t" -T "ALBUM=%g" -T "DATE=%y" -T "TRACKNUMBER=%n" -T "TOTALTRACKS=%x" -T "GENRE=%m" -T "COMMENT=EAC V0.99 prebeta 5, Secure Mode, Test & Copy, AccurateRip, FLAC -8" %s


TOC of the extracted CD

Track | Start | Length | Start sector | End sector
---------------------------------------------------------
1 | 0:00.00 | 4:46.61 | 0 | 21510
2 | 4:46.61 | 17:28.35 | 21511 | 100145
3 | 22:15.21 | 3:13.12 | 100146 | 114632
4 | 25:28.33 | 5:21.11 | 114633 | 138718
5 | 30:49.44 | 1:29.73 | 138719 | 145466
6 | 32:19.42 | 2:54.61 | 145467 | 158577
7 | 35:14.28 | 4:20.37 | 158578 | 178114
8 | 39:34.65 | 3:22.00 | 178115 | 193264
9 | 42:56.65 | 15:37.25 | 193265 | 263564


Track 1

Filename C:FLAC FILESEmerson Lake & Palmer - Live At Nassau Coliseum 78 (2011) [FLAC] {Shout Factory 2CD Set}CD11 - Hoedown.wav

Pre-gap length 0:00:02.00

Peak level 99.7 %
Track quality 100.0 %
Test CRC 9F140642
Copy CRC 9F140642
Track not pre
31d6fe653dc83bbc121b3b434d17331308b9fc72(2011) Emerson Lake & Palmer - Live At Nassau Coliseum 78 (2CD Set) (Rock) [FLAC (tracks+.cue),Lossless] (2011) Emerson Lake & Palmer - Live At Nassau Coliseum 78 (2CD Set) (Rock) [FLAC (tracks+.cue),Lossless] " />

Аплоадер: Админ, дата: 29-04-2011, 19:02, торрент скачан: 359 раз

Понравилась раздача? Посмотрите эти:
  • (2013) Robert Palmer / Icon (Pop, Classic Rock) [MP3, 320 / CBR]
  • (1993) Rock N Roll Racing - The Arcade (OST) [MP3 320/CBR]
  • (2007) JONATHAN DAVIS (of Korn) / Alone I Play (Nu-Metal, Live) [FLAC(trac ...
  • (2009) SHAKIRA / She Wolf (US Edition) (Pop) [Flac (tracks+.cue), lossless] ...
  • (2010)Scorpions/Sting In The Tail [FLAC (tracks+cue), lossless]
  • (2010) ПИKНИК / Театр Абсурда (Art-Rock) [FLAC (tracks+.cue), lossless]
  • (2008) Pink / Funhouse (Pop) [FLAC (tracks) lossless]
  • (2009) Radiohead / Hail To The Thief [Collectors Edition: 2-nd CD] (Alterna ...
  • (2011) Red Hot Chili Peppers / Im With You (Alternative Rock/Funk) [FLAC (t ...
  • (2010) Ravenna / Debrief (Alt. Rock / Christian Rock / Indie) [FLAC (tracks ...
  • (2011) B.B. King / Icon (Blues) [FLAC (tracks+.cue), lossless]
  • VA / Progressive Rock Anthology [2003, Progressive Rock, Art Rock, DVDRip]
  • Emerson Lake & Palmer / 40th Anniversary Reunion Concert (Live)[2011, Progr ...
  • (2012) Keke Palmer / Keke Palmer (R&B, Pop) [MP3, 128-320 kbps/CBR]
  • (2006) The Rasmus / Shot (Single) (Alternative Rock) [FLAC (tracks+.cue), l ...
  • (1970, 1971, 1972) E.L.P. (Emerson, Lake & Palmer) 3 Albums (Art-rock/P ...
  • (2009) Miley Cyrus / The Time of Our Lives (Pop) [FLAC (tracks+.cue), lossl ...
  • (2011) Linkin Park / Iridescent (Alternative Rock) [FLAC(image+.cue), lossl ...
  • (2011) Ляпис Трубецкой / Веселые картинки (Rock) [FLAC (tracks+.cue), lossl ...
  • (2011) Evanescence / Evanescence (Alternative Rock) [FLAC (tracks+.cue), lo ...
  • (2011) This Will Destroy You / Tunnel Blanket (Post Rock) [FLAC (tracks+.cu ...
  • (2011) Ленинград / Хна (Rock) [FLAC (tracks+.cue), lossless]
  • (2012) The Cranberries / Roses (Alternative Rock / Pop-Rock) [FLAC (tracks+ ...
  • (2011) Святослав Вакарчук (Океан Эльзы) / Брюссель (Rock/Soft Rock) [FLAC ( ...
  • (2012) Оргия Праведников / Шитрок (Rock/Progressive Rock) [FLAC (tracks+cue ...
  • Информация
    Посетители, находящиеся в группе Гости, не могут оставлять комментарии к данной публикации.