вход на сайт

Имя пользователя :
Пароль :

Восстановление пароля Регистрация
(2008) Amaral / Gato negro Dragon rojo (Latin rock, alternative rock) [Flac(tracks + .cue) lossless]
Рейтинг:
(голосов: 1)



[img]{THEME}/images/logopost.png[/img]



Исполнитель: Amaral
Альбом: Gato negro Dragon rojo
Тип альбома: Студийный
Год выпуска: 2008
Жанр: Rock
Формат:FLAC (tracks)
Битрейт: lossless
Продолжительность: 01:05:04

Tреклист:
"Треклист CD 1" ▼01. Kamikaze (3:42)
02. Tarde de Domingo Rara (3:19)
03. La Barrera Del Sonido (3:16)
04. Las Chicas de Mi Barrio (4:31)
05. Esta Noche (3:41)
06. Las Puertas Del Infierno (2:59)
07. Biarritz (4:16)
08. Gato Negro (3:28)
09. Rockandroll (4:12)

"Отчет EAC CD 1" ▼Exact Audio Copy V0.99 prebeta 5 from 4. May 2009
Отчёт EAC об извлечении, выполненном 4. декабря 2009, 20:47
Amaral / Gato negro
Дисковод: HL-DT-STRW/DVD GCC-4242N Adapter: 1 ID: 0
Режим чтения : Достоверность
Использование точного потока : Да
Отключение кэша аудио : Нет
Использование указателей C2 : Нет
Коррекция смещения при чтении : 102
Способность читать области Lead-in и Lead-out : Нет
Заполнение пропущенных сэмплов тишиной : Да
Удаление блоков с тишиной в начале и конце : Нет
При вычислениях CRC использовались нулевые сэмплы : Нет
Интерфейс : Встроенный Win32-интерфейс для Win NT/2000
Обработка зазоров : Не обнаружено, добавлено к предыдущему треку
Выходной формат : Пользовательский кодировщик
Выбранный битрейт : 768 kBit/s
Качество : Высокий
Добавление ID3-тэга : Нет
Утилита сжатия : C:Program FilesExact Audio CopyFLACFLAC.EXE
Дополнительные параметры : -6 -V -T "ARTIST=%a" -T "TITLE=%t" -T "ALBUM=%g" -T "DATE=%y" -T "TRACKNUMBER=%n" -T "GENRE=%m" -T "COMMENT=%e" %s -o %d
TOC извлечённого CD
Трек | Старт | Длительность | Начальный сектор | Конечный сектор
---------------------------------------------------------------------
1 | 0:00.00 | 3:42.64 | 0 | 16713
2 | 3:42.64 | 3:19.42 | 16714 | 31680
3 | 7:02.31 | 3:17.00 | 31681 | 46455
4 | 10:19.31 | 4:31.56 | 46456 | 66836
5 | 14:51.12 | 3:42.06 | 66837 | 83492
6 | 18:33.18 | 3:00.24 | 83493 | 97016
7 | 21:33.42 | 4:17.05 | 97017 | 116296
8 | 25:50.47 | 3:29.04 | 116297 | 131975
9 | 29:19.51 | 4:12.59 | 131976 | 150934
Трек 1
Имя файла C:MusicAmaral - Gato Negro Dragon Rojocd1. Kamikaze.wav
Пиковый уровень 99.9 %
Качество трека 100.0 %
CRC теста 8ED09BCB
CRC копии 8ED09BCB
Точное извлечение (достоверность 8) [DFE839A6]
Копирование... OK
Трек 2
Имя файла C:MusicAmaral - Gato Negro Dragon Rojocd1. Tarde de domingo rara.wav
Пиковый уровень 99.9 %
Качество трека 99.9 %
CRC теста 98D1F82C
CRC копии 98D1F82C
Точное извлечение (достоверность 9) [68B15B00]
Копирование... OK
Трек 3
Имя файла C:MusicAmaral - Gato Negro Dragon Rojocd1. La barrera del sonido.wav
Пиковый уровень 99.9 %
Качество трека 100.0 %
CRC теста 9E37FCFB
CRC копии 9E37FCFB
Точное извлечение (достоверность 9) [2F021BFD]
Копирование... OK
Трек 4
Имя файла C:MusicAmaral - Gato Negro Dragon Rojocd1. Las chicas de mi barrio.wav
Пиковый уровень 99.9 %
Качество трека 100.0 %
CRC теста 8358B1DE
CRC копии 8358B1DE
Точное извлечение (достоверность 9) [098A1A11]
Копирование... OK
Трек 5
Имя файла C:MusicAmaral - Gato Negro Dragon Rojocd1. Esta noche.wav
Пиковый уровень 99.9 %
Качество трека 100.0 %
CRC теста 2895F593
CRC копии 2895F593
Точное извлечение (достоверность 9) [85FFF34D]
Копирование... OK
Трек 6
Имя файла C:MusicAmaral - Gato Negro Dragon Rojocd1. Las puertas del infierno.wav
Пиковый уровень 99.9 %
Качество трека 99.9 %
CRC теста 5CE45830
CRC копии 5CE45830
Точное извлечение (достоверность 9) [79C5689B]
Копирование... OK
Трек 7
Имя файла C:MusicAmaral - Gato Negro Dragon Rojocd1. Biarritz.wav
Пиковый уровень 99.9 %
Качество трека 100.0 %
CRC теста CF027959
CRC копии CF027959
Точное извлечение (достоверность 9) [581C3409]
Копирование... OK
Трек 8
Имя файла C:MusicAmaral - Gato Negro Dragon Rojocd1�8. Gato negro.wav
Пиковый уровень 99.9 %
Качество трека 100.0 %
CRC теста 3D0B7191
CRC копии 3D0B7191
Точное извлечение (достоверность 9) [1BDD499E]
Копирование... OK
Трек 9
Имя файла C:MusicAmaral - Gato Negro Dragon
93ebbc78284b5528d987563262659c12963b2368(2008) Amaral / Gato negro Dragon rojo (Latin rock, alternative rock) [Flac(tracks + .cue) lossless] (2008) Amaral / Gato negro Dragon rojo (Latin rock, alternative rock) [Flac(tracks + .cue) lossless] " />

Аплоадер: Админ, дата: 26-03-2011, 20:36, торрент скачан: 359 раз

Понравилась раздача? Посмотрите эти:
  • (2012) Sting / Fifteen Healing Bites (Pop Rock)(Chinese Dragon) [FLAC (trac ...
  • (2009) НОЧНЫЕ СНАЙПЕРЫ — Южный полюс (русский рок, сингл) [FLAC (lossless), ...
  • (2008) ST / Сто из Ста (Rap) [FLAC(track+.cue), lossless]
  • (2006) Tokio / puls 200 (Alternative Rock / Pop Rock) [FLAC (image+.cue) lo ...
  • (2008) John Lennon - Greatest Hits (2CD) (Classic Rock) [FLAC (image+.cue) ...
  • (2011) Легенды Про / Желтый Дом (Rap) [FLAC (tracks+.cue), Lossless]
  • (1999,2000) Led Zeppelin / The Best Of (2CD) (Hard Rock) [Flac(image+.cue)l ...
  • (Дискография) Chris Isaak (Blues Rock/Southern Rock/Pop Rock) [APE/FLAC (im ...
  • (2011) АлисА / 20.12 (Русский Рок) [WavPack (image+.cue), lossless]
  • (2004) Genesis / Platinum Collection (Art Rock) [FLAC (image+.cue), lossles ...
  • (Дискография, 1986 - 1999) Crimson Glory (Progressive Heavy Metal) [FLAC (i ...
  • (2012) The Rasmus / The Rasmus (Alternative Rock/Melodic Rock) [FLAC (track ...
  • (2012) Rammstein / Mein Herz brennt (Industrial, Tanz-Metal) [FLAC (tracks ...
  • (2002) ТАТУ - 200 по встречной (переиздание) (Pop) [lossless FLAC (image +. ...
  • (2009) Александр Розенбаум - Мечта блатного поэта (Авторская песня) [MP3, 3 ...
  • (2010) Агата Кристи / Эпилог (Rock) [FLAC (tracks+.cue), lossless]
  • (2009) Amaral / La barrera del sonido (Latin rock, alternative rock) [mp3, ...
  • (2009) Земфира / Z-Sides (Rock) [FLAC(image+.cue), lossless ]
  • Amaral / La Barrera Del Sonido [2009, Rock, DVDRip]
  • (2006) Би-2 / Лучшие песни (Rock) [FLAC (image+.cue), lossless]
  • (1998) Шанхай и Маргулис / 7+1 (Blues Rock) [FLAC (tracks+.cue), lossless]
  • (1986) Dark Angel / Darkness Descends (Thrash Metal) [FLAC (image+.cue), lo ...
  • (2011) Ассаи / ОМ (Rap) [FLAC (tracks+.cue), lossless]
  • (1995) Юрий Шатунов / Ты помнишь... (Pop) [FLAC(image+.cue), lossless]
  • (1995) Steve Morse Band / Structural Damage (Instrumental Rock/Blues Rock/J ...
  • Информация
    Посетители, находящиеся в группе Гости, не могут оставлять комментарии к данной публикации.