вход на сайт

Имя пользователя :
Пароль :

Восстановление пароля Регистрация
(2009) Radiohead / Hail To The Thief [Collectors Edition: 2-nd CD] (Alternative Rock) [Flac(tracks+.cue)lossless]
Рейтинг:
(голосов: 1)



[img]{THEME}/images/logopost.png[/img]



Исполнитель: Radiohead
Альбом: Hail To The Thief [Collectors Edition: 2-nd CD]
Тип альбома: Compilation
Год выпуска: 2009
Жанр: Alternative Rock
Формат: Flac(tracks+.cue)
Битрейт: lossless
Продолжительность: 00:51:57

Tреклист:
1. Paperbag Writer (3:58)
2. Where Bluebirds Fly (4:31)
3. I Am Citizen Insane (3:33)
4. Fog (Again) (live) (2:18)
5. Gagging Order (3:36)
6. I Am a Wicked Child (3:06)
7. Remyxomatosis (Cristian Vogel remix) (5:10)
8. There There (first demo) (7:45)
9. Skttrbrain (Four Tet remix) (4:25)
10. I Will (Los Angeles version) (2:23)
11. Sail to the Moon (BBC Radio 1s Jo Whileys Live Lounge - 28/05/03) (4:11)
12. 2 + 2 = 5 (live at Earls Court) (3:35)
13. Go To Sleep (Zane Lowe - 08/12/03) (3:32)

"Отчет EAC" ▼Exact Audio Copy V0.99 prebeta 5 from 4. May 2009

EAC extraction logfile from 21. November 2009, 21:59

Radiohead / Hail to the Thief (Limited Collectors Edition CD2)

Used drive: ASUSDRW-2014L1T Adapter: 3ID: 0

Read mode : Secure
Utilize accurate stream : Yes
Defeat audio cache: Yes
Make use of C2 pointers : No

Read offset correction: 6
Overread into Lead-In and Lead-Out: No
Fill up missing offset samples with silence : Yes
Delete leading and trailing silent blocks : No
Null samples used in CRC calculations : Yes
Used interface: Native Win32 interface for Win NT & 2000
Gap handling: Appended to previous track

Used output format: User Defined Encoder
Selected bitrate: 224 kBit/s
Quality : High
Add ID3 tag : No
Command line compressor : Z:Program FilesExact Audio CopyFlacflac.exe
Additional command line options : -V -8 -T "artist=%a" -T "title=%t" -T "album=%g" -T "date=%y" -T "tracknumber=%n" -T "genre=%m" %s

TOC of the extracted CD

Track | Start|Length| Start sector | End sector
---------------------------------------------------------
1|0:00.00 |3:58.21 | 0|17870
2|3:58.21 |4:31.19 | 17871|38214
3|8:29.40 |3:32.45 | 38215|54159
4| 12:02.10 |2:18.30 | 54160&n
13d2645feadad23c5f532f0c227f7d695f64dab6(2009) Radiohead / Hail To The Thief [Collectors Edition: 2-nd CD] (Alternative Rock) [Flac(tracks+.cue)lossless] (2009) Radiohead / Hail To The Thief [Collectors Edition: 2-nd CD] (Alternative Rock) [Flac(tracks+.cue)lossless] " />

Аплоадер: Админ, дата: 21-03-2011, 11:13, торрент скачан: 359 раз

Понравилась раздача? Посмотрите эти:
  • (2009) НОЧНЫЕ СНАЙПЕРЫ — Армия2009 (русский рок) [FLAC (lossless), tracks+. ...
  • (2009) ONE REPUBLIC / Waking Up (Pop-Rock/Alternative) [FLAC (tracks+.cue) ...
  • (2009) SHAKIRA / She Wolf (US Edition) (Pop) [Flac (tracks+.cue), lossless] ...
  • (2010)Scorpions/Sting In The Tail [FLAC (tracks+cue), lossless]
  • (2010) ПИKНИК / Театр Абсурда (Art-Rock) [FLAC (tracks+.cue), lossless]
  • (2010) Deftones / Diamond Eyes (Nu metal / Alternative) [FLAC, (tracks+ cu ...
  • (2008) Pink / Funhouse (Pop) [FLAC (tracks) lossless]
  • (2010) Bloodhound Gang / Show Us Your Hits (Alternative Rock,Comedy Punk) [ ...
  • (2009) Michael Jackson / The Stripped Mixes (POP) [Flac / Tracks + .cue]
  • (2011) Hollywood Undead / American Tragedy (Deluxe Edition) (Alternative/Hi ...
  • (2011) Red Hot Chili Peppers / Im With You (Alternative Rock/Funk) [FLAC (t ...
  • (2009) Dead By Sunrise / Out Of Ashes (Japanese Edition) (Alternative Rock) ...
  • (2010) Ne-Yo / Libra Scale (Japanese Edition) (RnB) [FLAC (tracks+.cue) los ...
  • (2010) Rihanna / Loud (R&B) [FLAC (tracks+.cue), lossless]
  • (2011) Chris Brown / F.A.M.E. (Deluxe Edition) (R&B) [FLAC (tracks+.cue), l ...
  • (2003) DJ Zinc / Faster (DnB, Breaks) [ FLAC (tracks+.cue), lossless]
  • (2006) The Rasmus / Shot (Single) (Alternative Rock) [FLAC (tracks+.cue), l ...
  • [2009] Muse / The Resistance (Alternative / Indie) [FLAC, lossless]
  • (2010) Linkin Park / A Thousand Suns (Alternative, Electronic) [FLAC (track ...
  • (2008) Scars on Broadway / Scars on Broadway (Japan Edition) (Alt.Metal/Exp ...
  • (2011) Evanescence / Evanescence (Alternative Rock) [FLAC (tracks+.cue), lo ...
  • (2011) Ленинград / Хна (Rock) [FLAC (tracks+.cue), lossless]
  • (2012) The Cranberries / Roses (Alternative Rock / Pop-Rock) [FLAC (tracks+ ...
  • (2011) Downhere / On The Altar Of Love (Alternative Rock/Christian Rock) [F ...
  • (2012) Оргия Праведников / Шитрок (Rock/Progressive Rock) [FLAC (tracks+cue ...
  • Информация
    Посетители, находящиеся в группе Гости, не могут оставлять комментарии к данной публикации.