вход на сайт

Имя пользователя :
Пароль :

Восстановление пароля Регистрация
(2010) Bloodhound Gang / Show Us Your Hits (Alternative Rock,Comedy Punk) [FLAC (tracks+.cue).lossless]
Рейтинг:
(голосов: 1)



[img]{THEME}/images/logopost.png[/img]



Исполнитель: Bloodhound Gang
Альбом: Show Us Your Hits
Тип альбома: Студийный
Год выпуска: 2010
Жанр: Alternative Rock,Comedy Punk
Формат: FLAC (tracks+.cue)
Битрейт: lossless
Продолжительность: 00:59:49

Tреклист:
01 - Altogether Ooky (4:16)
02 - Fire Water Burn (4:56)
03 - Along Comes Mary (3:23)
04 - Foxtrot Uniform Charlie Kilo (2:55)
05 - The Bad Touch (4:25)
06 - No Hard Feelings (5:16)
07 - A Lap Dance Is So Much Better When The Stripper Is Crying (5:42)
08 - Kiss Me Where It Smells Funny (3:09)
09 - The Ballad Of Chasey Lain (2:26)
10 - Screwing You On The Beach At Night (3:44)
11 - Three Point One Four (4:00)
12 - Youre Pretty When Im Drunk (4:01)
13 - Uhn Tiss Uhn Tiss Uhn Tiss (4:24)
14 - I Hope You Die (3:47)
15 - Disco Pogo (3:25)

"Отчет EAC" ▼Exact Audio Copy V1.0 beta 1 from 15. November 2010

EAC extraction logfile from 15. December 2010, 19:18

Bloodhound Gang / Show Us Your Hits

Used drive: TSSTcorpCDDVDW SE-S224Q Adapter: 7ID: 0

Read mode : Secure
Utilize accurate stream : Yes
Defeat audio cache: Yes
Make use of C2 pointers : No

Read offset correction: 6
Overread into Lead-In and Lead-Out: No
Fill up missing offset samples with silence : Yes
Delete leading and trailing silent blocks : No
Null samples used in CRC calculations : No
Used interface: Native Win32 interface for Win NT & 2000
Gap handling: Appended to previous track

Used output format: User Defined Encoder
Selected bitrate: 768 kBit/s
Quality : High
Add ID3 tag : No
Command line compressor : C:Program Files (x86)Exact Audio CopyFLACFLAC.EXE
Additional command line options : -6 -V -T "ARTIST=%a" -T "TITLE=%t" -T "ALBUM=%g" -T "DATE=%y" -T "TRACKNUMBER=%n" -T "GENRE=%m" -T "COMMENT=%e" %j--picture="%i"%j %s -o %d


TOC of the extracted CD

Track | Start|Length| Start sector | End sector
---------------------------------------------------------
1|0:00.00 |4:16.19 | 0|19218
2|4:16.19 |4:56.38 | 19219|41456
3|9:12.57 |3:23.60 | 41457|56741
&n
695d71ddc3c7cecfb97fce5beb41ed7cfd9c059f(2010) Bloodhound Gang / Show Us Your Hits (Alternative Rock,Comedy Punk) [FLAC (tracks+.cue).lossless] (2010) Bloodhound Gang / Show Us Your Hits (Alternative Rock,Comedy Punk) [FLAC (tracks+.cue).lossless] " />

Аплоадер: Админ, дата: 10-01-2011, 12:17, торрент скачан: 359 раз

Понравилась раздача? Посмотрите эти:
  • (2010) Bloodhound Gang / Show Us Your Hits (alternative rock,comedy punk) [ ...
  • (2009) ONE REPUBLIC / Waking Up (Pop-Rock/Alternative) [FLAC (tracks+.cue) ...
  • (2010)Scorpions/Sting In The Tail [FLAC (tracks+cue), lossless]
  • (2010) ПИKНИК / Театр Абсурда (Art-Rock) [FLAC (tracks+.cue), lossless]
  • (2010) Deftones / Diamond Eyes (Nu metal / Alternative) [FLAC, (tracks+ cu ...
  • (2008) Pink / Funhouse (Pop) [FLAC (tracks) lossless]
  • (2010) Michael Jackson - Michael (Pop) [FLAC, (tracks+.cue), lossless]
  • (2009) Radiohead / Hail To The Thief [Collectors Edition: 2-nd CD] (Alterna ...
  • (Дискография 1997-2010) Electric Six (Indie Rock/Alternative Rock) [FLAC (t ...
  • (2011) Red Hot Chili Peppers / Im With You (Alternative Rock/Funk) [FLAC (t ...
  • (2011) Coldplay / Mylo Xyloto (Alternative Rock) [FLAC (tracks+.cue), lossl ...
  • (2009) Dead By Sunrise / Out Of Ashes (Japanese Edition) (Alternative Rock) ...
  • (Дискография, 1995-2005) The Bloodhound Gang (Alternative, Punk-Rock) [FLAC ...
  • (2011) Sum 41 / Screaming Bloody Murder‎ (Punk-Rock/Alternative)[FLAC (trac ...
  • (2010) Rihanna / Loud (R&B) [FLAC (tracks+.cue), lossless]
  • (2010) Linkin Park / A Thousand Suns (Alternative, Electronic) [FLAC (track ...
  • (2011) Evanescence / Evanescence (Alternative Rock) [FLAC (tracks+.cue), lo ...
  • (2012) The Cranberries / Roses (Alternative Rock / Pop-Rock) [FLAC (tracks+ ...
  • (2011) Downhere / On The Altar Of Love (Alternative Rock/Christian Rock) [F ...
  • (2012) Our Lady Peace / Curve (Alternative/Rock) [FLAC (tracks+.cue), lossl ...
  • Информация
    Посетители, находящиеся в группе Гости, не могут оставлять комментарии к данной публикации.