вход на сайт

Имя пользователя :
Пароль :

Восстановление пароля Регистрация
(1999) PUHDYS / 20 Hits aus 30 Jahren (69-99) (Rock) [FLAC (tracks + cue) lossless]
Рейтинг:
(голосов: 1)



[img]{THEME}/images/logopost.png[/img]



Исполнитель: PUHDYS
Альбом: 20 Hits aus 30 Jahren (1969-1999)
Тип альбома: Студийный
Год выпуска: 1999
Жанр: Rock
Формат: FLAC (tracks)
Битрейт: lossless
Продолжительность: 01:18:22


Tреклист:
[02:40] 01. Geh zu ihr
[03:29] 02. Lebenszeit
[03:47] 03. Königin
[04:07] 04. Wenn Träume sterben
[04:14] 05. Was bleibt
[03:21] 06. Wenn ein Mensch lebt
[03:49] 07. He, John
[03:59] 08. Ich will nicht vergessen
[03:51] 09. Doch die Gitter schweigen
[04:35] 10. Türen öffnen sich zur Stadt
[03:58] 11. Melanie
[05:28] 12. Bis ans Ende der Welt
[03:50] 13. An den Ufern der Nacht
[04:27] 14. Kleiner Planet
[03:11] 15. Alt wie ein Baum
[04:00] 16. Rockerrente
[03:54] 17. Hey, wir wollґn die Eisbärn sehn
[02:46] 18. Süden
[03:32] 19. Steh auf und lauf
[05:14] 20. Das Buch

Состав:
Дитер Бирр (нем. Dieter Birr)(прозвище - машина) — вокал, гитара
Дитер Хертрампф (нем. Dieter Hertrampf) — гитара, вокал
Клаус Шарфшвердт (нем. Klaus Scharfschwerdt) — ударные инструменты
Петер Мэйер (нем. Peter Meyer) — клавишные инструменты, саксофон
Петер Разим (нем. Peter Rasym) — бас

"Отчет EAC" ▼TextExact Audio Copy V0.99 prebeta 4 from 23. January 2008

EAC Auslese-Logdatei vom 22. April 2009, 17:16

Puhdys / 1969 - 1999

Benutztes Laufwerk : HL-DT-STDVD-ROM GDR-H30N Adapter: 0 ID: 1

Lesemodus : Sicher
Benutze Accurate Stream : Ja
Audio Puffer abgeschaltet : Ja
Benutze C2 Fehlerinformationen : Nein

Leseoffset Korrektur : 6
Ьberlesen in das Lead-In und Lead-Out : Nein
Fьlle fehlende Offsetsample mit Stille auf : Ja
Lцsche fьhrende und nachfolgende stille Blцcke : Nein
Null Samples gehen in CRC Berechnungen ein : Ja
Benutzte Schnittstelle : Installierte externe ASPI Schnittstelle

Benutztes Ausgabeformat : Interne WAV Routinen
Sampleformat : 44.100 Hz; 16 Bit; Stereo


TOC der ausgelesenen CD

Track | Start | Lдnge | Startsektor | Endsektor
-------------------------------------------------------
1 | 0:00.00 | 2:40.60 | 0 | 12059
2 | 2:40.60 | 3:29.37 | 12060 | 27771
3 | 6:10.22 | 3:47.38 | 27772 | 44834
4 | 9:57.60 | 4:07.47 | 44835 | 63406
5 | 14:05.32 | 4:14.28 | 63407 | 82484
6 | 18:19.60 | 3:21.12 | 82485 | 97571
7 | 21:40.72 | 3:49.65 | 97572 | 114811
8 | 25:30.62 | 3:59.23 | 114812 | 132759
9 | 29:30.10 | 3:51.25 | 132760 | 150109
10 | 33:21.35 | 4:35.32 | 150110 | 170766
11 | 37:56.67 | 3:58.68 | 170767 | 188684
12 | 41:55.60 | 5:28.67 | 188685&n
054eb2f5bb4c37cbd75a82f1d7924f241baa1ec1(1999) PUHDYS / 20 Hits aus 30 Jahren (69-99) (Rock) [FLAC (tracks + cue) lossless] (1999) PUHDYS / 20 Hits aus 30 Jahren (69-99) (Rock) [FLAC (tracks + cue) lossless] " />

Аплоадер: Админ, дата: 26-08-2010, 23:03, торрент скачан: 359 раз

Понравилась раздача? Посмотрите эти:
  • (2000) Lenny Kravitz / Greatest Hits (Rock, Funk) [FLAC (image+.cue), lossl ...
  • (2009) Ozzy Osbourne / Greatest Hits (2CD) (Heavy Metal, Hard Rock) [FLAC ( ...
  • (Jazz) LOUIS ARMSTRONG — Louis Armstrongs All Time Greatest Hits — 2003, F ...
  • (1991) James Brown - 20 All-Time Greatest Hits![FLAC (tracks+.cue) lossless ...
  • (1999) Red Hot Chili Peppers - Californication (Alternative rock, Funk) [FL ...
  • (2009) ONE REPUBLIC / Waking Up (Pop-Rock/Alternative) [FLAC (tracks+.cue) ...
  • (1996) John Scofield / Quiet (Jazz, Fusion, Guitar Jazz) [FLAC (image+.cue) ...
  • (2007) Video Kids / The Invasion Of The Spacepeckers (Disco) [APE (image+.c ...
  • ( 2001) Ottawan / D.I.S.C.O. & II (Disco) [APE (image+.cue), lossless]
  • (2010)Scorpions/Sting In The Tail [FLAC (tracks+cue), lossless]
  • (2010) ПИKНИК / Театр Абсурда (Art-Rock) [FLAC (tracks+.cue), lossless]
  • (2010) Bloodhound Gang / Show Us Your Hits (Alternative Rock,Comedy Punk) [ ...
  • (1968) Ten Years After / Undead (Rock / Blues / Blues Rock) [Flac (tracks+. ...
  • (2011, сборник) ATB / Greatest Hits (Trance) [FLAC (tracks+.сue), lossless] ...
  • (2007, 5 CDs Box set) VA / 100 Hits - Rock (Hard Rock, Classic Rock) [FLAC ...
  • (2009) Linkin Park / Underground 09/LPU 9 (Alt.Rock/Nu-Metal) [FLAC (track ...
  • (1999) Muffler / Muffler (Drum & Bass) [FLAC (tracks+.cue), lossless]
  • (1993) Крис Кельми / Greatest Hits (Pop-Rock) [FLAC (image+.cue), lossless] ...
  • (2010) Кукрыниксы / Всадники Света (Punk Rock) [FLAC (tracks+.cue), lossles ...
  • (2011) Ляпис Трубецкой / Веселые картинки (Rock) [FLAC (tracks+.cue), lossl ...
  • (2005) Antonio Forcione / Tears Of Joy (Instrumental, Акустическая гитара) ...
  • (2011) Ленинград / Хна (Rock) [FLAC (tracks+.cue), lossless]
  • (2012) The Cranberries / Roses (Alternative Rock / Pop-Rock) [FLAC (tracks+ ...
  • [LP] (1999) Red Hot Chili Peppers / Californication (Alternative, Funk-rock ...
  • (2012) Оргия Праведников / Шитрок (Rock/Progressive Rock) [FLAC (tracks+cue ...
  • Информация
    Посетители, находящиеся в группе Гости, не могут оставлять комментарии к данной публикации.