вход на сайт

Имя пользователя :
Пароль :

Восстановление пароля Регистрация
(2008) John Lennon - Greatest Hits (2CD) (Classic Rock) [FLAC (image+.cue), lossless]
Рейтинг:
(голосов: 1)



[img]{THEME}/images/logopost.png[/img]



Исполнитель: John Lennon
Альбом: Greatest Hits
Тип альбома: Студийный (LP)
Год выпуска: 2008
Жанр: Classic Rock
Формат: FLAC (image+.cue)
Битрейт: lossless
Продолжительность: 2:38:17

Tреклист:

CD 1

01. Imagine - 3:05
02. #9 Dream - 4:49
03. Watching the Wheels - 3:32
04. Whatever Gets You Thru The Night - 3:30
05. Oh My Love - 2:47
06. Oh Yoko! - 4:20
07. Mind Games - 4:16
08. Woman - 3:34
09. Jealous Guy - 4:16
10. Stand By Me - 3:28
11. Old Dirt Road - 4:13
12. Mother - 5:39
13. Be-Bop-A-Lula - 2:42
14. Bless You - 4:40
15. Im Stepping Out - 4:09
16. Love - 3:26
17. Angel Baby - 3:46
18. Beautiful Boy (Darling Boy) - 4:06
19. Out The Blue - 3:24
20. Here We Go Again - 4:48


CD 2

01. (Just Like) Starting Over - 3:59
02. Im Losing You - 3:59
03. Cold Turkey - 5:06
04. Instant Karma! (We All Shine On) - 3:23
05. Working Class Hero - 3:53
06. 07. How Do You Sleep - 5:40
07. 08. God - 4:13
08. 09. Scared - 4:39
09. 10. Gimme Some Truth - 3:17
10. 11. Woman Is The Nigger Of The World - 5:18
11. 12. Nobody Told Me - 3:36
12. 13. I Dont Want to Be a Soldier Mama - 6:10
13. 14. Steel And Glass - 4:38
14. 15. You Cant Catch Me - 4:53
15. 16. Nobody Loves You (When Youre Down And Out) - 5:11
16. 17. Power To The People - 3:23
17. 18. Happy Xmas (War Is Over) - 3:40
18. Give Peace A Chance - 4:51



Отчеты EAC :

Отчёт ЕАС CD 1:
▼Exact Audio Copy V0.99 prebeta 5 from 4. May 2009

Отчёт EAC об извлечении, выполненном 25. июня 2010, 14:08

John Lennon / Greatest Hits CD1

Дисковод: ASUS DRW-2014L1 Adapter: 0 ID: 1

Режим чтения : Достоверность
Использование точного потока : Да
Отключение кэша аудио : Да
Использование указателей C2 : Нет

Коррекция смещения при чтении : 6
Способность читать области Lead-in и Lead-out : Нет
Заполнение пропущенных сэмплов тишиной : Да
Удаление блоков с тишиной в начале и конце : Нет
При вычислениях CRC использовались нулевые сэмплы : Да
Интерфейс : Встроенный Win32-интерфейс для Win NT/2000

Выходной формат : Пользовательский кодировщик
Выбранный битрейт : 768 kBit/s
Качество : Высокий
Добавление ID3-тэга : Нет
Утилита сжатия : C:Program FilesExact Audio CopyFLACFLAC.EXE
Дополнительные параметры : -8 -V %s

TOC извлечённого CD

Трек | Старт | Длительность | Начальный сектор | Конечный сектор
---------------------------------------------------------------------
1 | 0:00.00 | 3:04.56 | 0 | 13855
2 | 3:04.56 | 4:49.00 | 13856 | 35530
3 | 7:53.56 | 3:32.18 | 35531 | 51448
4 | 11:25.74 | 3:29.48 | 51449 | 67171
5 | 14:55.47 | 2:46.51 | 67172 | 79672
6 | 17:42.23 | 4:19.57 | 79673 | 99154
7 | 22:02.05 | 4:16.02 | 99155 | 118356
8 | 26:18.07 | 3:34.03 | 118357 | 134409
9 | 29:52.10 | 4:15.54 | 134410 | 153588
10 | 34:07.64 | 3:28.17 | 153589 | 169205
11 | 37:36.06 | 4:13.32 | 169206 | 188212
12 | 41:49.38 | 5:39.02 | 188213 | 213639
13 | 47:28.40 | 2:42.05 | 213640 | 225794
14 | 50:10.45 | 4:40.08 | 225795 | 246802
15 | 54:50.53 | 4:08.45 | 246803 | 265447
16 | 58:59.23 | 3:26.02 | 265448 | 280899
17 | 62:25.25 | 3:45.67 | 280900 | 297841
18 | 66:11.17 | 4:06.03 | 297842 | 316294
19 | 70:17.20 | 3:24.25 | 316295 | 331619
20 | 73:41.45 | 4:47.50 | 331620 | 353194

Характеристики диапазона извлечения и сообщения об ошибках

Выбранный диапазон

Имя файла D:John Lennon - Greatest Hits 2CDCD 1John Lennon - Greatest Hits CD1.wav

Пиковый уровень 100.0 %
Качество диапазона 100.0 %
CRC теста 430D7FEC
CRC копии 430D7FEC
Копирование... OK

Ошибок не произошло

Конец отчёта

Отчет EAC CD 2:
▼Exact Audio Copy V0.99 prebeta 5 from 4. May 2009

Отчёт EAC об извлечении, выполненном 25. июня 2010, 15:44

John Lennon / Greatest Hits CD2

Дисковод: ASUS DRW-2014L1 Adapter: 0 ID: 1

Режим чтения : Достоверность
Использование точного потока : Да
Отключение кэша аудио : Да
Использование указате
9aa338854d632ceeef83a261d078881e1a7a8ae0 (2008) John Lennon - Greatest Hits (2CD) (Classic Rock) [FLAC (image+.cue), lossless] (2008) John Lennon - Greatest Hits (2CD) (Classic Rock) [FLAC (image+.cue), lossless] " />

Аплоадер: Админ, дата: 9-07-2010, 10:31, торрент скачан: 359 раз

Понравилась раздача? Посмотрите эти:
  • (2000) Lenny Kravitz / Greatest Hits (Rock, Funk) [FLAC (image+.cue), lossl ...
  • (2013) Pinnick Gales Pridgen / Pinnick Gales Pridgen (Hard Rock, Heavy Blue ...
  • (2010) Green Day / Greatest Hits (2CD) (Alternative, Punk Rock) [APE (image ...
  • (2008) Deep Purple / Greatest Hits [Star Mark Compilations] (2CD) (Hard Roc ...
  • (2010) HIM / Greatest Hits (2CD) (Gothic Metal, Love Metal) [APE (image+.cu ...
  • (2012) John Lennon / The Gold Collection (Box Set 3CD) (Classic Rock) [MP3, ...
  • (2006, сборник) VA - The Greatest Jazz Hits (Jazz) [lossless, FLAC (tracks+ ...
  • (2008) VANESSA MAE / Star Mark Greatest Hits [2CD] (Neoclassical / Violin / ...
  • (2010) Мафик / Ангел (Шансон) [FLAC(image+cue), lossless]
  • (2009) MOBY / Greatest Hits (CD1)(Electronic, House, Ambient) [FLAC (track+ ...
  • (1994) Joy / Grand Collection (EuroDisco) [FLAC (image+.cue) lossless]
  • (1988) James Last / Romantic Love Songs (Instrumental) [FLAC (image+.cue) l ...
  • (2006) Tokio / puls 200 (Alternative Rock / Pop Rock) [FLAC (image+.cue) lo ...
  • (2004) Genesis / Platinum Collection (Art Rock) [FLAC (image+.cue), lossles ...
  • (2011) Blues Cousins / KGB Blues (Blues Rock) [FLAC (image+.cue), lossless] ...
  • (2011) АукцЫон / Юла (Rock) [APE (image+.cue), lossless]
  • (2011) Queen / The Platinum Collection Greatest Hits [I, II, III] Japanese ...
  • (2007) Pink Floyd / Greatest Hits [Star Mark] (2 CD) (Progressive Rock, Ps ...
  • (1997) JOHN LENNON / The Very Best of John Lennon (classic rock) [Mp3, 320/ ...
  • (2009, Cборник) Madonna / Greatest Hits [CD1 + CD2] (Pop) [APE (image+.cue) ...
  • (2007, сборник) Azzurra Orchestra / Saxophone Hits (3CD Box) (Jazz-Pop, Smo ...
  • (2000) Парк Горького (Gorky Park) / The Best (Glam Metal/Hard Rock) [FLAC ...
  • (2004) Ex-Сектор Газа / Огненный рай (Punk-Rock) [FLAC (image+.cue), lossle ...
  • (2003) Elton John / Greatest Hits 1970-2002 (Pop, Rock) [FLAC (image+.cue), ...
  • (2008) Студия 80 / Придуманный Мир (Pop) [FLAC (image+.cue), lossless]
  • Информация
    Посетители, находящиеся в группе Гости, не могут оставлять комментарии к данной публикации.