вход на сайт

Имя пользователя :
Пароль :

Восстановление пароля Регистрация
(2010)Scorpions/Sting In The Tail [FLAC (tracks+cue), lossless]
Рейтинг:
(голосов: 1)



[img]{THEME}/images/logopost.png[/img]





Исполнитель: Scorpions
Альбом: Sting In The Tail
Тип альбома: Студийный
Год выпуска: 2010
Жанр: Hard Rock
Формат: flac (tracks+cue)
Битрейт: lossless
Log-файл: Присутствует
Продолжительность:00:47:59

Tреклист:

1. Raised On Rock (04:01)
2. Sting In The Tail (03:15)
3. Slave Me (02:47)
4. The Good Die Young (05:17)
5. No Limit (03:25)
6. Rock Zone (03:20)
7. Lorelei (04:35)
8. Turn You On (04:26)
9. Lets Rock! (03:23)
10. Sly (05:19)
11. Spirit Of Rock (03:45)
12. The Best Is Yet To Come (04:34)

Отчет EAC:
▼Exact Audio Copy V0.99 prebeta 5 from 4. May 2009

EAC extraction logfile from 14. March 2010, 2:01

Scorpions / Sting In The Tail

Used drive: PIONEER DVD-RWDVRTD08A Adapter: 4ID: 0

Read mode : Secure
Utilize accurate stream : Yes
Defeat audio cache: Yes
Make use of C2 pointers : Yes

Read offset correction: 48
Overread into Lead-In and Lead-Out: No
Fill up missing offset samples with silence : Yes
Delete leading and trailing silent blocks : No
Null samples used in CRC calculations : Yes
Used interface: Native Win32 interface for Win NT & 2000
Gap handling: Appended to previous track

Used output format: User Defined Encoder
Selected bitrate: 1024 kBit/s
Quality : High
Add ID3 tag : No
Command line compressor : C:Program FilesExact Audio Copyflac.exe
Additional command line options : -T "artist=%a" -T "title=%t" -T "album=%g" -T "date=%y" -T "tracknumber=%n" -T "genre=%m" -5 %s
Use compression offset: 48


TOC of the extracted CD

Track | Start|Length| Start sector | End sector
---------------------------------------------------------
1|0:00.00 |4:00.54 | 0|18053
2|4:00.54 |3:14.69 | 18054|32672
3|7:15.48 |2:47.10 | 32673|45207
4| 10:02.58 |5:16.32 | 45208|68939
5
e49e618f53737b9766b70e4012e5c181dc58a4af(2010)Scorpions/Sting In The Tail [FLAC (tracks+cue), lossless] (2010)Scorpions/Sting In The Tail [FLAC (tracks+cue), lossless] " />

Аплоадер: Админ, дата: 16-03-2010, 11:35, торрент скачан: 359 раз

Понравилась раздача? Посмотрите эти:
  • (2010) Scorpions / Sting in the Tail (Hard Rock) [MP3, 320CBR]
  • (2009) ONE REPUBLIC / Waking Up (Pop-Rock/Alternative) [FLAC (tracks+.cue) ...
  • (2010) ПИKНИК / Театр Абсурда (Art-Rock) [FLAC (tracks+.cue), lossless]
  • (2010) Deftones / Diamond Eyes (Nu metal / Alternative) [FLAC, (tracks+ cu ...
  • (2008) Pink / Funhouse (Pop) [FLAC (tracks) lossless]
  • (2010) Eminem / Recovery (Rap / Hip-Hop) [FLAC (tracks+.cue) lossless]
  • (2010) Начало / Inception (by Hans Zimmer) (Score) [FLAC (tracks+.cue) loss ...
  • (2010) Michael Jackson - Michael (Pop) [FLAC, (tracks+.cue), lossless]
  • (2010) Вячеслав Бутусов и Ю-Питер / Цветы и Тернии (Rock) [FLAC (tracks + . ...
  • (2010) Нюша / Выбирать чудо (Pop) [FLAC(tracks+.cue), lossless]
  • (2009) Michael Jackson / The Stripped Mixes (POP) [Flac / Tracks + .cue]
  • (2010) Zaz / Zaz (Nu jazz, Chanson, Soul) [FLAC (tracks+.cue), lossless]
  • (2010) Ravenna / Debrief (Alt. Rock / Christian Rock / Indie) [FLAC (tracks ...
  • (2010) Ne-Yo / Libra Scale (Japanese Edition) (RnB) [FLAC (tracks+.cue) los ...
  • (2010) Rihanna / Loud (R&B) [FLAC (tracks+.cue), lossless]
  • (2003) DJ Zinc / Faster (DnB, Breaks) [ FLAC (tracks+.cue), lossless]
  • (2011) Nero / Welcome Reality (Dubstep / House / Drum & Bass) [FLAC (tracks ...
  • (2010) Sade / Soldier Of Love ( jazz, soul, blues) [FLAC (tracks) lossless] ...
  • (2010) Morcheeba / Blood Like Lemonade ( Electronic, Downtempo, Pop, Trip-h ...
  • (2010) Linkin Park / A Thousand Suns (Alternative, Electronic) [FLAC (track ...
  • (2011) Scorpions / Comeblack (Hard Rock) [FLAC (tracks+.cue)lossless]
  • (2011) Ленинград / Хна (Rock) [FLAC (tracks+.cue), lossless]
  • (2012) The Cranberries / Roses (Alternative Rock / Pop-Rock) [FLAC (tracks+ ...
  • (2011) Святослав Вакарчук (Океан Эльзы) / Брюссель (Rock/Soft Rock) [FLAC ( ...
  • (2012) Оргия Праведников / Шитрок (Rock/Progressive Rock) [FLAC (tracks+cue ...
  • Информация
    Посетители, находящиеся в группе Гости, не могут оставлять комментарии к данной публикации.