вход на сайт

Имя пользователя :
Пароль :

Восстановление пароля Регистрация
(Дискография) Anberlin (Alternative Rock) [WAVPack (image+.cue) lossless]
Рейтинг:
(голосов: 1)



[img]{THEME}/images/logopost.png[/img]



Дискография
Исполнитель: Anberlin
Жанр: Alternative Rock
Формат: WAVPack (image+.cue)
Битрейт: lossless
Продолжительность: 04:01:43

Об исполнителе: Anberlin — американская группа, играющая в стиле альтернативный рок, из города Винтер Хэвен во Флориде. Группа образована в 2002 году и с начала 2007 состоит из вокалиста Стефена Кристиана, бас-гитариста Деона Рексроута, соло-гитариста Джозефа Миллигана, барабанщика Натана Янга и ритм-гитариста Кристиана МакАлэни.
В начале 90-х этими людьми была создана группа под названием SaGoh 24/7, которая успела выпустить два студийных альбома до роспуска, вызванного расхождениями в музыкальных взглядах между её участниками. Anberlin была сформирована в 2002, в тот же год они подписали контракт с полунезависимой студией «Tooth & Nail Records» и выпустили свой дебютный альбом «Blueprints for the Black Market». В 2005 группа выпустила свой второй альбом, который был назван «Never Take Friendship Personal», проданный в количестве 150 тысяч копий.
Anberlin продолжили свой путь к известности, общаясь с фанатами через MySpace и давая около 200 концертов в год.

Blueprints for the Black Market▼

Тип альбома: Студийный (LP)
Год выпуска: 2003
Формат: WAVPack (image+.cue)
Битрейт: lossless
Продолжительность: 00:37:51

Tреклист:
1. Readyfuels (3:38)
2. Foreign Language (2:49)
3. Change The World (Lost Ones) (4:00)
4. Cold War Transmissions (3:13)
5. Glass To The Arson (3:30)
6. The Undeveloped Story (3:28)
7. Autobahn (3:26)
8. We Dreamt In Heist (3:18)
9. Love Song (3:05)
10. Cadence (3:18)
11. Naïve Orleans (4:08)

Отчет EAC:
▼Exact Audio Copy V0.99 prebeta 4 from 23. January 2008

EAC extraction logfile from 13. March 2009, 14:29

Anberlin / Blueprints For The Black Market

Used drive: ASUSDRW-2014L1T Adapter: 2ID: 1

Read mode : Secure
Utilize accurate stream : Yes
Defeat audio cache: Yes
Make use of C2 pointers : No

Read offset correction: 6
Overread into Lead-In and Lead-Out: No
Fill up missing offset samples with silence : Yes
Delete leading and trailing silent blocks : No
Null samples used in CRC calculations : Yes
Used interface: Installed external ASPI interface

Used output format : Internal WAV Routines
Sample format: 44.100 Hz; 16 Bit; Stereo


TOC of the extracted CD

Track | Start|Length| Start sector | End sector
---------------------------------------------------------
1|0:00.00 |3:37.56 | 0|16330
2|3:37.56 |2:49.22 | 16331|29027
3|6:27.03 |3:59.57 | 29028|47009
4| 10:26.60 |3:12.47 | 47010|61456
&
5d935a801fa6d4105ed28da9c528e8f64b3ba26e(Дискография) Anberlin (Alternative Rock) [WAVPack (image+.cue) lossless] (Дискография) Anberlin (Alternative Rock) [WAVPack (image+.cue) lossless] " />

Аплоадер: Админ, дата: 26-02-2010, 00:54, торрент скачан: 359 раз

Понравилась раздача? Посмотрите эти:
  • (2013) Anberlin / Devotion: Vital Special Edition [2CD] (Alt.Rock) [MP3, 32 ...
  • Булат Окуджава — Российские Барды — 2002, WAVPack (image+.cue), lossless
  • (Дискография) LUMEN (Punk Rock) [WavPack (image+.cue), lossless]
  • (Дискография) ДЕЛЬФИН (DOLPHIN) (Alternative) [WavPack/image+cue, lossless] ...
  • (2008) Ассаи / Фаталист (Rap) [Ape(image+.cue), lossless]
  • (2008) Капа и Картель / Гламурным (Rap) [Ape(image+ cue), lossless]
  • (2010) Ассаи / Лифт (Rap) [FLAC(image+.cue), lossless]
  • (2010) Алиса / Ъ (The Hard Sign) (Hard Rock) [WavPack (iso.wv (image+.cue)) ...
  • (2007) Константин Никольский / Иллюзии (Rock) [APE (image + .cue), lossless ...
  • (2001) Пикник / Египтянин (Полная история) (Rock) [WavPack (image+.cue), lo ...
  • (2003) Пикник / Говорит и показывает (Полная история) (Rock) [WavPack (imag ...
  • (Дискография) Supertramp (Progressive & Art-Rock) [APE/FLAC (image/tracks+. ...
  • (2011) Вася Обломов / Повести и Рассказы (Стёб-Хоп Шансон) [WavPack (image+ ...
  • (2008) Юрий Наумов / Рок как будто Блюз (Blues) [FLAC (Image+.cue), lossles ...
  • (2011) 3 Doors Down / Time Of My Life [Deluxe Edition] (Alternative Rock/Po ...
  • (2010) 2Pac / Greatest Hits (Rap & Hip Hop) [APE (image+.cue), lossless]
  • (2011) Linkin Park / Iridescent (Alternative Rock) [FLAC(image+.cue), lossl ...
  • (2011) Стас Михайлов / Только ты (Шансон) [Flac(image+.cue)Lossless]
  • (2012) Crippled Black Phoenix / (Mankind) The Crafty Ape (Alternative/Indie ...
  • (2012) Muse / The 2nd Law (Alternative Rock, Progressive Rock) [FLAC (image ...
  • Информация
    Посетители, находящиеся в группе Гости, не могут оставлять комментарии к данной публикации.