вход на сайт

Имя пользователя :
Пароль :

Восстановление пароля Регистрация
(1977) Jethro Tull / Songs from the wood (Rock, Art-Rock) [FLAC (track+ cue) lossless]
Рейтинг:
(голосов: 1)



[img]{THEME}/images/logopost.png[/img]



Исполнитель: Jethro Tull
Альбом: Songs from the wood
Тип альбома: Студийный (LP)
Год выпуска: 1977
Жанр: Rock, Art-Rock
Формат: FLAC(track+ cue)
Битрейт: lossless
Продолжительность: 00:41:48

Треклист:
[04:53] 01. Songs From The Wood
[02:30] 02. Jack-In-The-Green
[04:34] 03. Cup Of Wonder
[05:12] 04. Hunting Girl
[03:48] 05. Ring Out, Solstice Bells
[06:05] 06. Velvet Green
[03:34] 07. The Whistler
[08:37] 08. Pibroch (Cap in Hand)
[02:30] 09. Fire At Midnight

Отчет EAC:
▼Exact Audio Copy V0.99 prebeta 4 from 23. January 2008

EAC extraction logfile from 11. July 2009, 1:33

Jethro Tull / Songs From The Wood

Used drive: ASUSCRW-5232A3 Adapter: 0ID: 0

Read mode : Secure
Utilize accurate stream : Yes
Defeat audio cache: Yes
Make use of C2 pointers : No

Read offset correction: 6
Overread into Lead-In and Lead-Out: No
Fill up missing offset samples with silence : Yes
Delete leading and trailing silent blocks : No
Null samples used in CRC calculations : Yes
Used interface: Native Win32 interface for Win NT & 2000
Gap handling: Not detected, thus appended to previous track

Used output format: User Defined Encoder
Selected bitrate: 768 kBit/s
Quality : High
Add ID3 tag : No
Command line compressor : E:Exact Audio Copy-0.99pb4flac.exe
Additional command line options : -8 -V -T "TITLE=%t" -T "TRACKNUMBER=%n" -T "COMMENT=EAC FLAC -8" %s


TOC of the extracted CD

Track | Start|Length| Start sector | End sector
---------------------------------------------------------
1|0:00.00 |4:53.72 | 0|22046
2|4:53.72 |2:30.45 | 22047|33341
3|7:24.42 |4:34.63 | 33342|53954
4| 11:59.30 |5:12.72 | 53955|77426
5| 17:12.27 |3:48.50 | 77427|94576
&n
41c872a21d6007059ac724919b8a40e5e13d5c44(1977) Jethro Tull / Songs from the wood (Rock, Art-Rock) [FLAC (track+ cue) lossless] (1977) Jethro Tull / Songs from the wood (Rock, Art-Rock) [FLAC (track+ cue) lossless] " />

Аплоадер: Админ, дата: 20-02-2010, 19:01, торрент скачан: 359 раз

Понравилась раздача? Посмотрите эти:
  • (2007) GORILLAZ / D-Sides [Japan Edition] (Hip-Hop) [FLAC (image+cue), loss ...
  • (2009) ONE REPUBLIC / Waking Up (Pop-Rock/Alternative) [FLAC (tracks+.cue) ...
  • (2010)Scorpions/Sting In The Tail [FLAC (tracks+cue), lossless]
  • (2010) ПИKНИК / Театр Абсурда (Art-Rock) [FLAC (tracks+.cue), lossless]
  • (2010) Deftones / Diamond Eyes (Nu metal / Alternative) [FLAC, (tracks+ cu ...
  • (2008) Pink / Funhouse (Pop) [FLAC (tracks) lossless]
  • (Дискография) GORILLAZ (Trip-Hop) [FLAC (tracks + .cue) lossless]
  • (2010) David Wahler / A Star Danced (New Age, Ambient, Instrumental) [FLAC ...
  • (2010) Michael Jackson - Michael (Pop) [FLAC, (tracks+.cue), lossless]
  • (2010) Bloodhound Gang / Show Us Your Hits (Alternative Rock,Comedy Punk) [ ...
  • (2009) Radiohead / Hail To The Thief [Collectors Edition: 2-nd CD] (Alterna ...
  • (2011) Uriah Heep - Into The Wild (Hard Rock, Progressive Rock)[FLAC (track ...
  • (2011) Red Hot Chili Peppers / Im With You (Alternative Rock/Funk) [FLAC (t ...
  • (2010) Ravenna / Debrief (Alt. Rock / Christian Rock / Indie) [FLAC (tracks ...
  • (2009) Linkin Park / Underground 09/LPU 9 (Alt.Rock/Nu-Metal) [FLAC (track ...
  • (2010) Rihanna / Loud (R&B) [FLAC (tracks+.cue), lossless]
  • [2009] Muse / The Resistance (Alternative / Indie) [FLAC, lossless]
  • (2011) Linkin Park / Iridescent (Alternative Rock) [FLAC(image+.cue), lossl ...
  • (2009) Чиж & Co / Лучшее. Золотая коллекция (Rock) [FLAC (image+.cue), loss ...
  • (2011) Evanescence / Evanescence (Alternative Rock) [FLAC (tracks+.cue), lo ...
  • (2011) Ленинград / Хна (Rock) [FLAC (tracks+.cue), lossless]
  • (2012) The Cranberries / Roses (Alternative Rock / Pop-Rock) [FLAC (tracks+ ...
  • (2011) Downhere / On The Altar Of Love (Alternative Rock/Christian Rock) [F ...
  • (2011) Святослав Вакарчук (Океан Эльзы) / Брюссель (Rock/Soft Rock) [FLAC ( ...
  • (2012) Оргия Праведников / Шитрок (Rock/Progressive Rock) [FLAC (tracks+cue ...
  • Информация
    Посетители, находящиеся в группе Гости, не могут оставлять комментарии к данной публикации.