вход на сайт

Имя пользователя :
Пароль :

Восстановление пароля Регистрация
(2007) JONATHAN DAVIS (of Korn) / Alone I Play (Nu-Metal, Live) [FLAC(tracks.+cue) lossless]
Рейтинг:
(голосов: 1)



[img]{THEME}/images/logopost.png[/img]





Исполнитель: Jonathan Davis (of Korn)
Альбом: Alone I Play (Woodshed Recorder Malibu, CA11/07/07)
Год выпуска: 2007
Жанр: Nu-Metall, Live
Формат: FLAC/divacks+cue
Битрейт: lossless
Тип битрейта: неактуально
Продолжительность: 00:53:15


Tracklist:
1. System (4:52)
2. Last Legal Drug (Le Petit Mort) (5:15)
3. 4 U (2:48)
4. Hey Daddy (3:52)
5. Forsaken (3:42)
6. Dirty (3:55)
7. Alone I Break (4:20)
8. Slept So Long (5:38)
9. Hushabye (4:35)
10. Kick the P.A. (2:31)
11. Not Meant for Me (4:41)
12. Hold On (3:05)
13. Careless (Akashas Lament) (4:45)
14. Redeemer (4:16)
15. Got the Life (3:43)
16. Trash (3:37)
17. Tearjerker (5:38)

Отчет EAC:
▼Exact Audio Copy V0.99 prebeta 3 from 28. July 2007

EAC extraction logfile from 28. February 2008, 19:31

Jonathan Davis / Alone I Play

Used drive: HL-DT-STDVDRWGSA-S10N Adapter: 0ID: 0

Read mode : Secure
Utilize accurate stream : Yes
Defeat audio cache: Yes
Make use of C2 pointers : No

Read offset correction: 667
Overread into Lead-In and Lead-Out: No
Fill up missing offset samples with silence : Yes
Delete leading and trailing silent blocks : No
Null samples used in CRC calculations : Yes
Used interface: Native Win32 interface for Win NT & 2000
Gap handling: Appended to previous track

Used output format: User Defined Encoder
Selected bitrate: 128 kBit/s
Quality : High
Add ID3 tag : No
Command line compressor : C:Program FilesFLACflac.exe
Additional command line options : -V -8 -T "artist=%a" -T "title=%t" -T "album=%g" -T "date=%y" -T "tracknumber=%n" -T "genre=%m" %s


TOC of the extracted CD

Track | Start|Length| Start sector | End sector
---------------------------------------------------------
1|0:00.00 |4:52.13 | 0|21912
2|4:52.13 |5:15.58 | 21913|45595
3| 10:07.71 |2:48.24 | 45596|58219
4| 12:56.20 |3:52.31 | 58220|75650
&nbs
c35c8d4f66724dbf3541ebc447615abc7079872e(2007) JONATHAN DAVIS (of Korn) / Alone I Play (Nu-Metal, Live) [FLAC(tracks.+cue) lossless] (2007) JONATHAN DAVIS (of Korn) / Alone I Play (Nu-Metal, Live) [FLAC(tracks.+cue) lossless] " />

Аплоадер: Админ, дата: 1-09-2009, 18:48, торрент скачан: 359 раз

Понравилась раздача? Посмотрите эти:
Информация
Посетители, находящиеся в группе Гости, не могут оставлять комментарии к данной публикации.