вход на сайт

Имя пользователя :
Пароль :

Восстановление пароля Регистрация
(1999) Red Hot Chili Peppers - Californication (Alternative rock, Funk) [FLAC (tracks+.cue), lossless]]
Рейтинг:
(голосов: 1)



[img]{THEME}/images/logopost.png[/img]



Исполнитель: Red Hot Chili Peppers
Альбом: Californication
Год выпуска: 1999
Жанр: Рок
Формат:FLAC (tracks+.cue)
Битрейт: lossless
Продолжительность: 00:56:42

Tрэклист:
01 - Around the World [3:58]
02 - Parallel Universe [4:30]
03 - Scar Tissue [3:37]
04 - Otherside [4:15]
05 - Get on Top [3:18]
06 - Californication [5:21]
07 - Easily [3:51]
08 - Porcelain [2:43]
09 - Emit Remmus [4:00]
10 - I Like Dirt [2:37]
11 - This Velvet Glove [3:45]
12 - Savior [4:52]
13 - Purple Stain [4:13]
14 - Right on Time [1:52]
15 - Road Trippin [3:25]

EAC log:
▼EAC extraction logfile from 18. May 2006, 19:35 for CD
Red Hot Chili Peppers / Californication

Used drive: LITE-ON CD-RW SOHR-5239V Adapter: 0ID: 3
Read mode : Secure with NO C2, accurate stream, disable cache
Read offset correction : 6
Overread into Lead-In and Lead-Out : No

Used output format : C:Program FilesFLACflac.exe (User Defined Encoder)
320 kBit/s
Additional command line options : -V -5 -T "artist=%a" -T "title=%t" -T "album=%g" -T "date=%y" -T "tracknumber=%n" -T "genre=%m" %s

Other options:
Fill up missing offset samples with silence : Yes
Delete leading and trailing silent blocks : No
Native Win32 interface for Win NT & 2000


Track1
Filename C:temp1 - Around The World.wav

Pre-gap length0:00:02.00

Peak level 100.0 %
Track quality 99.9 %
Test CRC CD31661B
Copy CRC CD31661B
Copy OK

Track2
Filename C:temp2 - Parallel Universe.wav

Pre-gap length0:00:00.20

Peak level 98.8 %
Track quality 100.0 %
Test CRC 11F5E35F
Copy CRC 11F5E35F
Copy OK

Track3
Filename C:temp3 - Scar Tissue.wav

Peak level 100.0 %
Track quality 100.0 %
Test CRC F81C04C2
Copy CRC F81C04C2
Copy OK

Track4
Filename C:temp4 - Otherside.wav

Pre-gap length0:00:00.84

Peak level 98.8 %
Track quality 100.0 %
Test CRC 01794222
Copy CRC 01794222
Copy OK

Track5
Filename C:temp5 - Get On Top.wav

Peak level 98.9 %
Track quality 99.9 %
Test CRC B6B593F9
Copy CRC B6B593F9
Copy OK

Track6
Filename C:temp6 - Californication.wav

Pre-gap length0:00:00.53

Peak level 98.8 %
Track quality 100.0 %
Test CRC 255BB903
Copy CRC 255BB903
Copy OK

Track7
Filename C:temp7 - Easily.wav

Pre-gap length0:00:00.84

Pe
fc36f6083eb4d1857855cc61e69e86abe2ac17ca(1999) Red Hot Chili Peppers - Californication (Alternative rock, Funk) [FLAC (tracks+.cue), lossless]] (1999) Red Hot Chili Peppers - Californication (Alternative rock, Funk) [FLAC (tracks+.cue), lossless]] " />

Аплоадер: Админ, дата: 29-04-2009, 19:21, торрент скачан: 359 раз

Понравилась раздача? Посмотрите эти:
  • (2012, Сборник) VA / Вечерняя Коллекция (Звуки природы) (Relax) [FLAC (trac ...
  • (Jazz) Ray Charles — The Very Best Of Ray Charles - 2000, FLAC (tracks), lo ...
  • (Soundtrack,1999) Fight Club / Бойцовский клуб - The Dust Brothers [FLAC (t ...
  • (Soundtrack,2007) The Orange Box - (Half-Life 2, Portal, Team Fortress 2) [ ...
  • (Дискография, 2000-2007) SUM 41 (Punk-Rock/Pop-Punk) [FLAC (tracks + .cue), ...
  • (Дискография) 1981-2009 Depeche Mode (Electronic, Synthpop) [FLAC (tracks+ ...
  • (2009) The Black Eyed Peas / The E.N.D. (The Energy Never Dies) (Target Del ...
  • (2001) GORILLAZ / Gorillaz (US Edition) (Hip-Hop) [FLAC (image+cue), lossle ...
  • (1990) Mozart / Requiem (KV 626) (Classical) [FLAC (tracks+.cue) lossless]
  • (2010 , OST) Пипец / Kick Ass (OST) [FLAC (tracks+.cue) lossless]
  • (2008) Karunesh /Enlightenment (New Age) [FLAC (image+.cue), lossless]
  • (1988) David Grisman Quintet feat. Svend Asmussen / Svingin With Svend (Jaz ...
  • (Дискография, 1995-2006) Adiemus (Instrumental, Folk, Vocal, New Age) [FLAC ...
  • (2009) Timbaland / Shock Value II (Hip-Hop / RnB) [FLAC (tracks+.cue), loss ...
  • (2004-2006) Amy Winehouse (Rhythm & Blues/Neo-Soul, Ska, Jazz Pop) [FLAC(t ...
  • (2006) The Rasmus / Shot (Single) (Alternative Rock) [FLAC (tracks+.cue), l ...
  • (2008) Miley Cyrus - Breakout (Platinum Edition) (Pop) [FLAC (tracks+.cue), ...
  • (2009) Miley Cyrus / The Time of Our Lives (Pop) [FLAC (tracks+.cue), lossl ...
  • (2010) [AMATORY] / Инстинкт обречённых (Nu Metal) [FLAC (tracks), lossless] ...
  • (2011) Linkin Park / Iridescent (Alternative Rock) [FLAC(image+.cue), lossl ...
  • (1999) Necrophagist / Onset Of Putrefaction (Technical Death Metal) [FLAC ( ...
  • (2011) This Will Destroy You / Tunnel Blanket (Post Rock) [FLAC (tracks+.cu ...
  • (2004) Дельфин / Запись концерта 19.11.04 (Alternative|Experimental) [FLAC ...
  • (Дискография, 2002 - 2012) Rodrigo y Gabriela (Acoustic, Flamenco, Classica ...
  • [LP] (1999) Red Hot Chili Peppers / Californication (Alternative, Funk-rock ...
  • Информация
    Посетители, находящиеся в группе Гости, не могут оставлять комментарии к данной публикации.