вход на сайт

Имя пользователя :
Пароль :

Восстановление пароля Регистрация
(1989, 1991, 1992, 1993) Nirvana — 4 альбома (Grunge) [WavPack (image+.cue), lossless]
Рейтинг:
(голосов: 1)



[img]{THEME}/images/logopost.png[/img]



4 альбома
Исполнитель: Nirvana
Жанр: Grunge, Alternative
Формат: WavPack (embedded cue-sheets)/image+cue
Битрейт: lossless
Об исполнителе: разве нужно что-то говорить об этой группе?

Альбомы:

1989 - Bleach (Sub Pop Records, 9878-70034-2)


Год Выпуска: 1989
Треклист:

01. Blew(2:54)
02. Floyd The Barber (2:18)
03. About A Girl (2:48)
04. School (2:42)
05. Love Buzz (3:35)
06. Paper Cuts (4:06)
07. Negative Creep (2:56)
08. Scoff (4:10)
09. Swap Meet (3:03)
10. Mr. Moustache (3:24)
11. Sifting (5:22)
12. Big Cheese (3:42)
13. Downer (1:43)

Отчет EAC
▼Exact Audio Copy V0.99 prebeta 4 from 23. January 2008

Отчёт EAC об извлечении, выполненном 19. апреля 2009, 18:30

Nirvana / Bleach (Sub Pop Records, 9878-70034-2)

Дисковод: ATAPI DVD ADH18A3P Adapter: 0ID: 1

Режим чтения : Достоверность
Использование точного потока : Да
Отключение кэша аудио: Да
Использование указателей C2: Нет

Коррекция смещения при чтении : 6
Способность читать области Lead-in и Lead-out : Нет
Заполнение пропущенных сэмплов тишиной: Да
Удаление блоков с тишиной в начале и конце: Нет
При вычислениях CRC использовались нулевые сэмплы : Да
Интерфейс : Встроенный Win32-интерфейс для Win NT/2000

Выходной формат : Внутренние WAV-операции
Формат сэмплов: 44.100 Гц; 16 бит; стерео


TOC извлечённого CD

Трек | Старт| Длительность | Начальный сектор | Конечный сектор
---------------------------------------------------------------------
1|0:00.33 |2:54.10 |33|13092
2|2:54.43 |2:17.72 | 13093|23439
3|5:12.40 |2:48.23 | 23440|36062
4|8:00.63 |2:42.12 | 36063|48224
5| 10:43.00 |3:35.08 | 48225|64357
6| 14:18.08 |4:05.62 | 64358|82794
7| 18:2
4d023be8423f037754be1af41084410b7b0bf97b(1989, 1991, 1992, 1993) Nirvana — 4 альбома (Grunge) [WavPack (image+.cue), lossless] (1989, 1991, 1992, 1993) Nirvana — 4 альбома (Grunge) [WavPack (image+.cue), lossless] " />

Аплоадер: Админ, дата: 19-04-2009, 20:48, торрент скачан: 359 раз

Понравилась раздача? Посмотрите эти:
  • (1992) Smokie / The Story Of Smokie (2CD Set Germany, BMG, Ariola) (Rock) [ ...
  • (Дискография, 1987-2011) Nirvana (Grunge/Alternative) [MP3, 320/CBR]
  • (дискография, 1983-2008) MADONNA (pop / dance) [WavPack (image+.cue) lossle ...
  • (2009) НОЧНЫЕ СНАЙПЕРЫ — Живаго в Лужниках (русский рок) [WAVPack (lossless ...
  • (2000) Tic Tac Toe / Ist der Ruf erst ruiniert... (Rap,Hip-hop) [Lossless, ...
  • (2007) Morandi / N3xt (Pop) [APE, (image + .cue), lossless]
  • (2010) Ласковый Май (Солист Юра Шатунов) / Оригинальные записи 1988-1989 (2 ...
  • (2010) ST1M / Октябрь (Rap) [APE(image+.cue), lossless]
  • (2006) Батырхан Шукенов/ Отан Ана (Pop) [FLAC (image+.cue) lossless]
  • (1998) Pharao / The Return (Eurodance) [APE (image+.cue)]
  • (1985) BABYS GANG / Challenger (Pop,Italo Disco) [APE(image+.cue)lossless] ...
  • (2011) АлисА / 20.12 (Русский Рок) [WavPack (image+.cue), lossless]
  • (2011) АукцЫон / Юла (Rock) [APE (image+.cue), lossless]
  • (2003) THE BLACK EYED PEAS / Elephunk (RnB) [Ape (image+.cue), lossless]
  • (2009) Rihanna / Rated R (R`n`B) [APE (image+.cue)]
  • (1993) Любовь Успенская / Любимый (шансон) [APE (image+.cue), lossless]
  • (2009) Челси / Точка возврата (Pop) [APE (image+.cue), lossless]
  • (2004) Ex-Сектор Газа / Огненный рай (Punk-Rock) [FLAC (image+.cue), lossle ...
  • (2008) Nirvana / The Best Of (Grunge, Alternative) [FLAC (image+.сue), loss ...
  • (2008) Студия 80 / Придуманный Мир (Pop) [FLAC (image+.cue), lossless]
  • Информация
    Посетители, находящиеся в группе Гости, не могут оставлять комментарии к данной публикации.