вход на сайт

Имя пользователя :
Пароль :

Восстановление пароля Регистрация
(2006) DAVID GILMOUR - On An Island (Progressive rock) [lossless, flac/image+cue]
Рейтинг:
(голосов: 1)



[img]{THEME}/images/logopost.png[/img]



Страна: UK
Жанр: Art/Progressive/Rock
Официальный сайт: http://www.davidgilmour.com/
Битрейт: FLAC / image + .cue
Формат: lossless
Дата выхода: 2006
Продолжительность: 00:51:44

Треклист:
01. Castellorizon [03:54]
02. On An Island [06:47]
03. The Blue [05:26]
04. Take A Breath [05:46]
05. Red Sky At Night [02:51]
06. This Heaven [04:25]
07. Then I Close My Eyes [05:27]
08. Smile [04:04]
09. A Pocketful Of Stones [06:18]
10. Where We Start [06:46]

Personnel:
David Gilmour - Guitars, vocals, cümbüş, alto saxophone on "Red Sky At Night"
Phil Manzanera - Guitars, vocals, Glass harmonica on "Shine On"
Guy Pratt - Bass guitar, vocals, guitar on "Then I Close My Eyes", Glass harmonica on "Shine On"
Richard Wright - Keyboards, vocals
Jon Carin - Keyboards, vocals, lap steel guitar
Dick Parry - Tenor and baritone saxophones, Keyboards, Glass harmonica on "Shine On"
Steve DiStanislao - Drums, percussion, vocals

Дэвид Джон Гилмор (англ. David Jon Gilmour, 6 марта 1946, Кембридж) — британский гитарист, вокалист, бас-гитарист, участник прог-рок группы Pink Floyd, после ухода из группы Сида Баррета стал её лидером. Д.Гилмор активно сотрудничает с различными благотворительными организациями. С 2003 года — кавалер ордена Британской империи в чине Командор.

Отчет ЕАС:
▼Exact Audio Copy V0.99 prebeta 4 from 23. January 2008

Отчёт EAC об извлечении, выполненном 31. января 2009, 16:42

David Gilmour / On An Island

Дисковод: ASUSDRW-1612BL Adapter: 1ID: 0

Режим чтения : Достоверность
Использование точного потока : Да
Отключение кэша аудио: Да
Использование указателей C2: Нет

Коррекция смещения при чтении : 6
Способность читать области Lead-in и Lead-out : Нет
Заполнение пропущенных сэмплов тишиной: Да
Удаление блоков с тишиной в начале и конце: Нет
При вычислениях CRC использовались нулевые сэмплы : Да
Интерфейс : Установленный внешний ASPI-интерфейс

Выходной формат : Внутренние WAV-операции
Формат сэмплов: 44.100 Гц; 16 бит; стерео


TOC извлечённого CD

Трек | Старт| Длительность | Начальный сектор | Конечный сектор
---------------------------------------------------------------------
1|0:00.00 |3:54.20 | 0|17569
2|3:54.20 |6:47.08 | 17570|48102
3| 10:41.28 |5:26.21 | 48103|72573
4| 16:07.49 |5:45.70 |&n
94a2379b7086ec037a74203d6cb2b29dc2bf36c8(2006) DAVID GILMOUR - On An Island (Progressive rock) [lossless, flac/image+cue] (2006) DAVID GILMOUR - On An Island (Progressive rock) [lossless, flac/image+cue] " />

Аплоадер: Админ, дата: 7-03-2009, 08:35, торрент скачан: 359 раз

Понравилась раздача? Посмотрите эти:
  • (2000) Lenny Kravitz / Greatest Hits (Rock, Funk) [FLAC (image+.cue), lossl ...
  • (1978) David Gilmour / David Gilmour (Progressive Rock) [MP3, 320/ CBR ]
  • (1994) Joy / Grand Collection (EuroDisco) [FLAC (image+.cue) lossless]
  • (2006) Батырхан Шукенов/ Отан Ана (Pop) [FLAC (image+.cue) lossless]
  • (2006) Tokio / puls 200 (Alternative Rock / Pop Rock) [FLAC (image+.cue) lo ...
  • (2011) Within Temptation / The Unforgiving (Symphonic Gothic Metal) [FLAC ( ...
  • (Дискография) The Doors (Classic Rock) [FLAC(tracks,image+.cue),APE(image+. ...
  • (2004) Genesis / Platinum Collection (Art Rock) [FLAC (image+.cue), lossles ...
  • (2011) Blues Cousins / KGB Blues (Blues Rock) [FLAC (image+.cue), lossless] ...
  • (Дискография, 1977-1980) Fandango (R&B, Melodic Hard Rock, Electric Pop Roc ...
  • (Дискография, 2002 - 2005) Hughes Turner Project - HTP (Glenn Hughes, Joe L ...
  • (1989) Motley Crue / Dr. Feelgood (Hard Rock, Heavy metal, Glam metal) [APE ...
  • David Gilmour / Remember That Night, Live At The Royal Albert Hall [2007, P ...
  • ( 2001) Воскресение / Звездная коллекция (Rock) [FLAC (image+.cue) lossless ...
  • (2008) David Gilmour / Live in Gdansk, 5 Disk Special Edition 2-CD, 2-DVD, ...
  • (2010) The Orb Featuring David Gilmour (ex. Pink Floyd) / Metallic Spheres ...
  • (1988) Fausto Papetti / Grand Collection (POP, Jazz) [FLAC (image+.cue), lo ...
  • (2000) Парк Горького (Gorky Park) / The Best (Glam Metal/Hard Rock) [FLAC ...
  • (2004) Ex-Сектор Газа / Огненный рай (Punk-Rock) [FLAC (image+.cue), lossle ...
  • (2008) Студия 80 / Придуманный Мир (Pop) [FLAC (image+.cue), lossless]
  • Информация
    Посетители, находящиеся в группе Гости, не могут оставлять комментарии к данной публикации.