вход на сайт

Имя пользователя :
Пароль :

Восстановление пароля Регистрация
(2010) HIM / Greatest Hits (2CD) (Gothic Metal, Love Metal) [APE (image+.cue), lossless]
Рейтинг:
(голосов: 1)



[img]{THEME}/images/logopost.png[/img]





Страна: Finland
Тип альбома: Compilation
Жанр: Gothic Metal, Love Metal
Аудиокодек: APE (image+.cue)
Битрейт: lossless
Log-Файл: Присутствует
Продолжительность: 02:38:56


Об исполнителе
▼HIM — финская рок-группа, основанная в 1991 году вокалистом Вилле Вало, гитаристом Микко Линдстрёмом и басистом Микко Паананеном. В период с 1997 по 2010 год группа выпустила семь студийных альбомов. HIM является первой в мире финской группой, чей альбом (Dark Light) был сертифицирован золотым диском американской ассоциацией звукозаписывающих компаний. В Финляндии альбомы Greatest Lovesongs vol. 666, Deep Shadows and Brilliant Highlights, Love Metal и Dark Light получили статусы платиновых, Razorblade Romance — дважды платинового.

Состав группы
Вилле Вало — вокал, акустическая гитара
Микко Линдстрём — электрогитара, бэк-вокал
Микко Паананен — бас-гитара, бэк-вокал
Мика Карппинен — ударные, перкуссия
Янне Пууртинен — клавишные, фортепианоGreatest Hits

CD1▼

Продолжительность 01:19:58

Tреклист
01. Heartkiller (03:29.29)
02. The Kiss Of Dawn (05:47.21)
03. Rip Out The Wings Of A Butterfly (03:28.73)
04. Right Here In My Arms (04:00.32)
05. And Love Said No (04:08.67)
06. Scared To Death (03:40.71)
07. Bleed Well (04:22.13)
08. Vampire Heart (04:46.35)
09. The Funeral Of Hearts (04:27.73)
10. Pretending (03:53.53)
11. Passions Killing Floor (05:08.72)
12. Join Me In Death (03:36.58)
13. Heartache Every Moment (03:56.13)
14. Killing Loneliness (04:29.17)
15. Poison Girl (03:51.25)
16. The Sacrament (04:29.15)
17. In Joy And Sorrow (04:00.12)
18. Wicked Game (04:06.63)
19. Your Sweet Six Six Six (04:12.48)


Отчет EAC▼TextExact Audio Copy V0.99 prebeta 5 from 4. May 2009

Отчёт EAC об извлечении, выполненном 15. августа 2010, 13:35

H.I.M. / Greatest Hits (CD1)

Дисковод: ASUS DRW-1604P Adapter: 1 ID: 0

Режим чтения : Достоверность
Использование точного потока : Да
Отключение кэша аудио : Да
Использование указателей C2 : Нет

Коррекция смещения при чтении : 48
Способность читать области Lead-in и Lead-out : Да
Заполнение пропущенных сэмплов тишиной : Да
Удаление блоков с тишиной в начале и конце : Нет
При вычислениях CRC использовались нулевые сэмплы : Да
Интерфейс : Установленный внешний ASPI-интерфейс

Выходной формат : Monkeys Audio (без потерь)
Выбранный битрейт : High Lossless Compression
Качество : Высокий
Добавление ID3-тэга : Да
Утилита сжатия : C:Program FilesMonkeys AudioMAC.exe


TOC извлечённого CD

Трек | Старт | Длительность | Начальный сектор | Конечный сектор
---------------------------------------------------------------------
1 | 0:00.00 | 3:29.29 | 0 | 15703
2 | 3:29.29 | 5:47.21 | 15704 | 41749
3 | 9:16.50 | 3:28.73 | 41750 | 57422
4 | 12:45.48 | 4:00.32&
19e7bf7921f82eba0ee0cbb37ad74395bb3ac351(2010) HIM / Greatest Hits (2CD) (Gothic Metal, Love Metal) [APE (image+.cue), lossless] (2010) HIM / Greatest Hits (2CD) (Gothic Metal, Love Metal) [APE (image+.cue), lossless] " />

Аплоадер: Админ, дата: 13-02-2013, 00:44, торрент скачан: 359 раз

Понравилась раздача? Посмотрите эти:
  • (2000) Lenny Kravitz / Greatest Hits (Rock, Funk) [FLAC (image+.cue), lossl ...
  • (2002) Aerosmith / O, Yeah! Ultimate Aerosmith Hits (Japanese Edition) (2CD ...
  • (2010) Green Day / Greatest Hits (2CD) (Alternative, Punk Rock) [APE (image ...
  • (2008) Deep Purple / Greatest Hits [Star Mark Compilations] (2CD) (Hard Roc ...
  • (2010) HIM / Greatest Hits (alt. rock / love metal) [MP3, 320/CBR]
  • (Дискография, 1992 - 2012) HIM (Love Metal, Gothic) [MP3, 128-320 kbps/CBR] ...
  • (2008) VANESSA MAE / Star Mark Greatest Hits [2CD] (Neoclassical / Violin / ...
  • (1988) James Last / Romantic Love Songs (Instrumental) [FLAC (image+.cue) l ...
  • (2008) John Lennon - Greatest Hits (2CD) (Classic Rock) [FLAC (image+.cue) ...
  • (2011) Within Temptation / The Unforgiving (Symphonic Gothic Metal) [FLAC ( ...
  • (1989) Motley Crue / Dr. Feelgood (Hard Rock, Heavy metal, Glam metal) [APE ...
  • (Дискография, 1996-2012) HIM - Discography (64 releases) (Love Metal, Gothi ...
  • (2007) Pink Floyd / Greatest Hits [Star Mark] (2 CD) (Progressive Rock, Ps ...
  • (2009, Cборник) Madonna / Greatest Hits [CD1 + CD2] (Pop) [APE (image+.cue) ...
  • (2011) Iron Savior / The Landing (Limited Edition) (Power/Heavy Metal) [FL ...
  • (2011) Deathstars / The Greatest Hits on Earth (Industrial Gothic Metal) [M ...
  • (2012) Paradise Lost / Tragic Idol (Limited Edition) (Gothic Rock, Metal) [ ...
  • (2011) Paradise Lost / Draconian Times MMXI (Limited Edition) (Gothic Rock, ...
  • (2000) Парк Горького (Gorky Park) / The Best (Glam Metal/Hard Rock) [FLAC ...
  • (2012) HIM / XX – Two Decades Of Love Metal (Gothic Rock | Love Metal) [MP3 ...
  • Информация
    Посетители, находящиеся в группе Гости, не могут оставлять комментарии к данной публикации.