вход на сайт

Имя пользователя :
Пароль :

Восстановление пароля Регистрация
(2009) Ozzy Osbourne / Greatest Hits (2CD) (Heavy Metal, Hard Rock) [FLAC (image + .cue), lossless]
Рейтинг:
(голосов: 1)



[img]{THEME}/images/logopost.png[/img]






Страна: United Kingdom
Жанр: Heavy Metal, Hard Rock
Формат: FLAC (image + .cue)
Битрейт: lossless
Log-Файл: Присутствует
Продолжительность: 02:38:52


Об исполнителе:
▼Оззи Осборн (англ. Ozzy Osbourne; настоящее имя Джон Майкл Осборн, англ. John Michael Osbourne; род. 3 декабря 1948, Бирмингем) — британский вокалист, один из основателей и участник «золотого состава» группы Black Sabbath.
После ухода из Black Sabbath начал сольную карьеру. На декабрь 2010 года в мире было продано более 100 млн его пластинок. Альбомы «Blizzard of Ozz» и «No More Tears» получили статус квадро-платиновых.

Состав группы:

John Michael Osbourne (aka Ozzy Osbourne) — вокал
Kostas Karamitroudis (aka Gus G.) — гитара
Tommy Clufetos — ударные
Adam Wakeman — клавишные
Rob "Blasko" Nicholson — бас-гитара



Greatest Hits:


CD1


Продолжительность: 01:19:55

Tреклист:
01. I Dont Wanna Stop (04:01.63)
02. Perry Mason (05:55.01)
03. I Cant Save You (03:33.07)
04. Dreamer (04:46.72)
05. Thunder Underground (06:26.46)
06. Not Going Away (04:34.25)
07. Mama, Im Coming Home (04:13.48)
08. I Just Want You (04:54.67)
09. No Easy Way Out (05:08.08)
10. No More Tears (05:56.27)
11. Back On Earth (04:59.72)
12. 21st Century Schizoid Man (03:54.71)
13. Walk On Water (04:20.45)
14. In My Life (03:31.48)
15. Ghost Behind My Eyes (05:11.36)
16. I Dont Want To Change The World (04:07.24)
17. Time After Time (04:18.26)


Отчет EAC▼TextExact Audio Copy V0.99 prebeta 5 from 4. May 2009

EAC extraction logfile from 14. May 2011, 15:17

Ozzy Osbourne / Greatest Hits [CD1]

Used drive : BENQ DVD LS DW1655 Adapter: 0 ID: 0

Read mode : Secure
Utilize accurate stream : Yes
Defeat audio cache : Yes
Make use of C2 pointers : No

Read offset correction : 618
Overread into Lead-In and Lead-Out : No
Fill up missing offset samples with silence : Yes
Delete leading and trailing silent blocks : No
Null samples used in CRC calculations : Yes
Used interface : Installed external ASPI interface

Used output format : Internal WAV Routines
Sample format : 44.100 Hz; 16 Bit; Stereo


TOC of the extracted CD

Track | Start | Length | Start sector | End sector
---------------------------------------------------------
1 | 0:00.00 | 4:01.63 | 0 | 18137
2 | 4:01.63 | 5:55.01 | 18138 | 44763
3 | 9:56.64 | 3:33.07 | 44764 | 60745
4 | 13:29.71 | 4:46.72 | 60746 | 82267
5 | 18:16.68 | 6:26.46 | 82268 | 111263
6 | 24:43.39 | 4:34.25 | 111264 | 131838
7 | 29:17.64 | 4:13.48 | 131839 | 150861
8 | 33:31.37 | 4:54.67 | 150862 | 172978
9 | 38:26.29 | 5:08.08 | 172979 | 196086
9e1bf38358836f67383fae4b562e70e8f802322c(2009) Ozzy Osbourne / Greatest Hits (2CD) (Heavy Metal, Hard Rock) [FLAC (image + .cue), lossless] (2009) Ozzy Osbourne / Greatest Hits (2CD) (Heavy Metal, Hard Rock) [FLAC (image + .cue), lossless] " />

Аплоадер: Админ, дата: 3-02-2013, 12:12, торрент скачан: 359 раз

Понравилась раздача? Посмотрите эти:
  • (2014) Ozzy Osbourne / Dreamer (Rock, Hard Rock, Heavy Metal, Power Ballad) ...
  • (2014) Ozzy Osbourne / Dreamer (Hard Rock, Heavy Metal, Power Ballad) [FLAC ...
  • (2013) Snakecharmer / Snakecharmer (Japanese Edition) (Melodic Hard Rock) [ ...
  • (2009) Black Sabbath - Greatest Hits (Hard Rock, Heavy Metal) [Mp3 / 320 kb ...
  • (Дискография 1980-2010) Ozzy Osbourne (Doom metal / Hard rock / Heavy metal ...
  • (Jazz) LOUIS ARMSTRONG — Louis Armstrongs All Time Greatest Hits — 2003, F ...
  • (1991) James Brown - 20 All-Time Greatest Hits![FLAC (tracks+.cue) lossless ...
  • (2010) Алиса / Ъ (The Hard Sign) (Hard Rock) [WavPack (iso.wv (image+.cue)) ...
  • (2011, сборник) ATB / Greatest Hits (Trance) [FLAC (tracks+.сue), lossless] ...
  • (Дискография, 1988-2011) Kingdom Come (Hard&Heavy,Glam Metal) [FLAC (image+ ...
  • (2011) 3 Doors Down / Time Of My Life [Deluxe Edition] (Alternative Rock/Po ...
  • (2012) Axel Rudi Pell / Circle Of The Oath (Limited Edition Digipack) (Melo ...
  • (2012) Uriah Heep / Logical Revelations (Hard Rock) [FLAC (image +.cue), lo ...
  • (2010) 2Pac / Greatest Hits (Rap & Hip Hop) [APE (image+.cue), lossless]
  • Ozzy Osbourne / Life Wont Wait [2010, Heavy Metal , HDRip]
  • (1993) Крис Кельми / Greatest Hits (Pop-Rock) [FLAC (image+.cue), lossless] ...
  • Motley Crue, Gorky Park, Ozzy Osbourne / Moscow Music Peace Festival vol.2, ...
  • (Full Studio Discography, 2011) George Michael (Japan) (Pop) [FLAC (image+. ...
  • (2011) JORN / Live In Black (Heavy/Progressive Metal ) [FLAC (image+.cue), ...
  • (2011) Metallica / Beyond Magnetic (Thrash Metal) [FLAC (image+.cue), lossl ...
  • (2012) RAGE / 21 (Limited Edition, 2CD) (Heavy Metal/Thrash Metal) [FLAC ( ...
  • (2012) Adrenaline Mob / Omerta (Heavy Metal/Progressive/Nu-Metal) [FLAC (im ...
  • (2012) Fox / 2012 (Melodic Hard Rock) [FLAC (image +.cue), lossless]
  • (2011) Yellowcard / Greatest Hits (Japan Edition) (Punk) [FLAC (image+.cue) ...
  • (2011) Lou Reed & Metallica / Lulu (Heavy Metal, Hard Rock) [FLAC (image+.c ...
  • Информация
    Посетители, находящиеся в группе Гости, не могут оставлять комментарии к данной публикации.